Noticia, | Continue Reading → | Notes Receivable Larry Walther Video English (15 reviews)
 * Dettagli Torrent   globale  | Commenti (0) 


- X-Factor.12.Audizioni.02.720p-corey91.mp4 -


Download via torrent:
Categoria bittorrent SerieTv
Descrizione
[center]

GIUSEPPEiCV & LITTLELINX
HANNO IL PIACERE DI PRESENTARE[


STAGIONE 12
SATRIP 720p


.: Dati Serie :.

Titolo originale The X Factor
Paese Italia
Anno 2008 – in produzione
Genere talent show, musicale
Edizioni 12
Lingua originale italiano


.: Trama  :.

La musica torna ad essere protagonista assoluta del grande schermo. Siete tutti pronti per un imperdibile viaggio alla ricerca del talento? Vi anticipiamo che sarà un tour incredibile! Al timone il nostro capitano Alessandro Cattelan, che sosterrà i concorrenti dal backstage con la sua instancabile energia, a bordo la nostra giuria composta dal veterano Fedez e dal suo infallibile fiuto discografico, dal temutissimo Manuel Agnelli, il “disturbatore”, dalla Queen Mara Maionchi, pronta a travolgere tutti con la sua personalità, e dalla new entry Asia Argento.


.: Screenshot :.




.: Caratteristiche Tecniche :.
[spoiler]
X-Factor.12.Audizioni.720p-corey91/X-Factor.12.Audizioni.01.720p-corey91.mp4
Format                                   : MPEG-4
Format profile                           : Base Media
Codec ID                                 : isom
File size                                : 2.87 GiB
Duration                                 : 1h 37mn
Overall bit rate                         : 4 192 Kbps
Writing application                      : Lavf54.63.104

Video
ID                                       : 1
Format                                   : AVC
Format/Info                              : Advanced Video Codec
Format profile                           : [email protected]
Format settings, CABAC                   : Yes
Format settings, ReFrames                : 1 frame
Format settings, GOP                     : M=1, N=30
Codec ID                                 : avc1
Codec ID/Info                            : Advanced Video Coding
Duration                                 : 1h 37mn
Bit rate                                 : 3 998 Kbps
Width                                    : 1 280 pixels
Height                                   : 720 pixels
Display aspect ratio                     : 16:9
Frame rate mode                          : Constant
Frame rate                               : 25.000 fps
Color space                              : YUV
Chroma subsampling                       : 4:2:0
Bit depth                                : 8 bits
Scan type                                : Progressive
Bits/(Pixel*Frame)                       : 0.174
Stream size                              : 2.73 GiB (95%)
Color primaries                          : BT.709-5, BT.1361, IEC 61966-2-4, SMPTE RP177
Transfer characteristics                 : BT.709-5, BT.1361
Matrix coefficients                      : BT.709-5, BT.1361, IEC 61966-2-4 709, SMPTE RP177

Audio
ID                                       : 2
Format                                   : AAC
Format/Info                              : Advanced Audio Codec
Format profile                           : LC
Codec ID                                 : 40
Duration                                 : 1h 37mn
Duration_LastFrame                       : -21ms
Bit rate mode                            : Constant
Bit rate                                 : 192 Kbps
Channel(s)                               : 2 channels
Channel positions                        : Front: L R
Sampling rate                            : 48.0 KHz
Compression mode                         : Lossy
Stream size                              : 132 MiB (5%)
Language                                 : English


[/spoiler]

.: Ringraziamenti :.




[/center]
Info: Per scaricare devi usare un client come uTorrent o Transmission
AnnounceURL
udp://tracker.opentrackr.org:1337/announce
Hash 8341ef800ca4f4a11e108026c158dcd0c1283477
Peers seeds: 1 , leech: 0
Size 2.97 GB
Completato 0x
Aggiunto 14.09.18 - 14:09:40
Uploader   ppb1
Votazione (Voti: 0)


Condividi questo bittorrent:


html/blog:


bbcode/forum:




Aggiungi Commento