Chapter 327 | Mortal Kombat X (2015-) #1 | Visual Basic 2010 espresso
 * Dettagli Torrent   globale  | Commenti (0) 


- Brivido (1986) Stephen King.H264.italian.english.Ac3-5.1.sub.ita-MIRCrew -


Download via torrent:
Categoria bittorrent BDRip
Descrizione
Maximum Overdrive - Brivido (1986) Stephen King.H264.italian.english.Ac3-5.1.sub.ita-MIRCrew



NO FOUND ONLY ORIGINAL RELEASE



My release is always in double track audio italian and Original audio
for select it use VLC or dvd player home
not use wmp

Brivido - Maximum Overdrive

(1986)









Titolo originale Maximum Overdrive
Lingua originale Inglese
Paese di produzione USA
Anno 1986
Durata 97 min
Rapporto 2.35 : 1
Genere commedia, orrore, fantascienza
Regia Stephen King
Soggetto Stephen King (racconto)
Sceneggiatura Stephen King



   Emilio Estevez: Bill Robinson
   Pat Hingle: Bubba Hendershot
   Laura Harrington: Brett
   Yeardley Smith: Connie
   John Short: Curtis
   Ellen McElduff: Wanda June
   J.C. Quinn: Duncan
   Holter Graham: Deke
   Stephen King: Uomo insultato al bancomat
   Frankie Faison: Handy
   Leon Rippy: Brad
   J. Don Ferguson: Andy
   Paul A. Partain: Joy



È il 19 giugno 1987, la congiunzione della Terra con la coda di una cometa crea scompiglio sul nostro pianeta.

Nel giorno dell'incrocio accadono fatti inspiegabilmente misteriosi: un bancomat di una banca che insulta un cliente (interpretato da King stesso); un ponte mobile che si apre senza essere comandato provocando un grande tamponamento



When Earth passes through the tail of Rea-M rogue comet, the machines come to life and start to kill mankind. A group of survivors is under siege from fierce trucks at the Dixie Boy truck stop gas station and they have to fight to survive.










[spoiler]
General
Unique ID                                : 171633727794899835344206608627692565374 (0x811F741DFEF0DB919D39B64B8A65737E)
Complete name                            : Brivido - Maximum Overdrive (1986).H264.ita.eng.sub.ita-MIRCrew\Brivido - Maximum Overdrive (1986).H264.ita.eng.sub.ita-MIRCrew.mkv
Format                                   : Matroska
Format version                           : Version 2
File size                                : 1.33 GiB
Duration                                 : 1h 38mn
Overall bit rate                         : 1 944 Kbps
Movie name                               : MIRCrew
Encoded date                             : UTC 2018-06-21 11:43:27
Writing application                      : mkvmerge v5.4.0 ('Piper') built on Mar 10 2012 13:34:39
Writing library                          : Lavf54.63.100

Video
ID                                       : 1
Format                                   : AVC
Format/Info                              : Advanced Video Codec
Format profile                           : [email protected]
Format settings, CABAC                   : Yes
Format settings, ReFrames                : 2 frames
Codec ID                                 : V_MPEG4/ISO/AVC
Duration                                 : 1h 38mn
Bit rate                                 : 1 300 Kbps
Width                                    : 720 pixels
Height                                   : 304 pixels
Display aspect ratio                     : 2.35:1
Original display aspect ratio            : 2.35:1
Frame rate mode                          : Variable
Frame rate                               : 23.976 fps
Color space                              : YUV
Chroma subsampling                       : 4:2:0
Bit depth                                : 8 bits
Scan type                                : Progressive
Bits/(Pixel*Frame)                       : 0.248
Stream size                              : 888 MiB (65%)
Writing library                          : x264 core 130 r2273
Encoding settings                        : cabac=1 / ref=2 / deblock=1:0:0 / analyse=0x1:0x131 / me=hex / subme=7 / psy=1 / psy_rd=1.00:0.00 / mixed_ref=0 / me_range=16 / chroma_me=1 / trellis=1 / 8x8dct=0 / cqm=0 / deadzone=21,11 / fast_pskip=1 / chroma_qp_offset=-2 / threads=3 / lookahead_threads=1 / sliced_threads=0 / nr=0 / decimate=1 / interlaced=0 / bluray_compat=0 / constrained_intra=0 / bframes=3 / b_pyramid=0 / b_adapt=1 / b_bias=0 / direct=3 / weightb=1 / open_gop=0 / weightp=2 / keyint=230 / keyint_min=23 / scenecut=40 / intra_refresh=0 / rc_lookahead=40 / rc=abr / mbtree=1 / bitrate=1300 / ratetol=1.0 / qcomp=0.60 / qpmin=10 / qpmax=69 / qpstep=4 / vbv_maxrate=24000 / vbv_bufsize=24000 / nal_hrd=none / ip_ratio=1.40 / aq=1:1.00
Language                                 : Italian
Default                                  : Yes
Forced                                   : No
DURATION                                 : 01:38:06.464000000
NUMBER_OF_FRAMES                         : 141134
NUMBER_OF_BYTES                          : 7020364937
_STATISTICS_WRITING_APP                  : mkvmerge v9.7.1 ('Pandemonium') 64bit
_STATISTICS_WRITING_DATE_UTC             : 2018-05-07 12:28:07
_STATISTICS_TAGS                         : BPS DURATION NUMBER_OF_FRAMES NUMBER_OF_BYTES

Audio #1
ID                                       : 2
Format                                   : AC-3
Format/Info                              : Audio Coding 3
Mode extension                           : CM (complete main)
Codec ID                                 : A_AC3
Duration                                 : 1h 38mn
Bit rate mode                            : Constant
Bit rate                                 : 448 Kbps
Channel(s)                               : 6 channels
Channel positions                        : Front: L C R, Side: L R, LFE
Sampling rate                            : 48.0 KHz
Bit depth                                : 16 bits
Compression mode                         : Lossy
Delay relative to video                  : -5ms
Stream size                              : 314 MiB (23%)
Title                                    : Ita Ac3 5.1
Language                                 : Italian
Default                                  : Yes
Forced                                   : No
DURATION                                 : 01:38:06.848000000
NUMBER_OF_FRAMES                         : 183964
NUMBER_OF_BYTES                          : 329646848
_STATISTICS_WRITING_APP                  : mkvmerge v9.7.1 ('Pandemonium') 64bit
_STATISTICS_WRITING_DATE_UTC             : 2018-05-07 12:28:07
_STATISTICS_TAGS                         : BPS DURATION NUMBER_OF_FRAMES NUMBER_OF_BYTES

Audio #2
ID                                       : 3
Format                                   : AC-3
Format/Info                              : Audio Coding 3
Mode extension                           : CM (complete main)
Muxing mode                              : Header stripping
Codec ID                                 : A_AC3
Duration                                 : 1h 38mn
Bit rate mode                            : Constant
Bit rate                                 : 192 Kbps
Channel(s)                               : 2 channels
Channel positions                        : Front: L R
Sampling rate                            : 48.0 KHz
Bit depth                                : 16 bits
Compression mode                         : Lossy
Delay relative to video                  : -42ms
Stream size                              : 135 MiB (10%)
Language                                 : English
Default                                  : No
Forced                                   : No

Menu
00:00:00.000                             : 01)00:00:00:000
00:00:00.375                             : 02)00:00:00:375
00:12:49.769                             : 03)00:12:49:769
00:23:15.977                             : 04)00:23:15:977
00:36:55.713                             : 05)00:36:55:713
00:47:30.347                             : 06)00:47:30:347
00:58:51.027                             : 07)00:58:51:027
01:10:47.743                             : 001:10:47:743
01:22:35.283                             : 09)01:22:35:283



[/spoiler]



Info: Per scaricare devi usare un client come uTorrent o Transmission
AnnounceURL
udp://tracker.coppersurfer.tk:6969/announce
Hash e1a274976484fe578064a99e1d81db55b34c9fd3
Peers seeds: 25 , leech: 10
Size 1.33 GB
Completato 535x
Aggiunto 09.08.18 - 12:08:36
Uploader   robbyrs
Votazione (Voti: 0)


Condividi questo bittorrent:


html/blog:


bbcode/forum:




Aggiungi Commento