Ariana Grande ft. Iggy Azalea - Problem. | Stardew Valley [v 1.3.28] (2016) PC | Лицензия | Lee Jung-Min Lee Young-Ok
 * Dettagli Torrent   globale  | Commenti (0) 


- Supergirl.3x23.Battaglie.Perse.E.Vinte.ITA.ENG.1080p.AMZN.WEB-DLMux.H.264-Morpheus.mkv -


Download via torrent:
Categoria bittorrent SerieTv
Descrizione
[center]

GIUSEPPEiCV & LITTLELINX
HANNO IL PIACERE DI PRESENTARE


STAGIONE 3
WEBMUX 1080p ITA - ENG AC3




.: Dati Serie :.


Nazione: Stati Uniti d'America
Anno: 2017
Genere: supereroi, azione, fantasy
Stagione: 3
Episodi: 23
Durata: 45 min circa
Lingua: ITA - ENG
Cast:
• Melissa Benoist: Kara Zor-El / Kara Danvers / Supergirl
• Mehcad Brooks: James "Jimmy" Olsen / Guardian
• Chyler Leigh: Alexandra "Alex" Danvers
• Jeremy Jordan: Winslow "Winn" Schott
• David Harewood: Hank Henshaw / J'onn J'onzz / Martian Manhunter
• Calista Flockhart: Cat Grant
• Chris Wood: Mon-El / Mike Matthews
• Floriana Lima: Maggie Sawyer
• Katie McGrath: Lena Luthor
• Odette Annable: Samantha Arias / Reign




The adventures of Superman's cousin in her own superhero career.Questa terza stagione sara' incentrata sulla figura di Kara che, dopo quanto accaduto nel finale del secondo capitolo, iniziera' a considerarsi maggiormente come un'aliena e non piu' come un'umana, dedicandosi quasi completamente alla sua vita di supereroina.


[/b]
.: Screenshot :.







.: Caratteristiche Tecniche :.

[spoiler]
Supergirl.3x01.La.Ragazza.D.Acciaio.ITA.ENG.1080p.AMZN.WEB-DLMux.H.264-Morpheus.mkv
Format                                   : Matroska
Format version                           : Version 4 / Version 2
File size                                : 3.26 GiB
Duration                                 : 40mn 37s
Overall bit rate mode                    : Variable
Overall bit rate                         : 11.5 Mbps
Encoded date                             : UTC 2018-02-04 20:30:39
Writing application                      : mkvmerge v7.6.0 ('Garden of Dreams') 64bit built on Feb  8 2015 15:12:28
Writing library                          : libebml v1.3.1 + libmatroska v1.4.2
DURATION                                 : 00:40:37.408000000
NUMBER_OF_FRAMES                         : 76169
NUMBER_OF_BYTES                          : 116995584
_STATISTICS_WRITING_APP                  : mkvmerge v7.6.0 ('Garden of Dreams') 64bit built on Feb  8 2015 15:12:28
_STATISTICS_WRITING_DATE_UTC             : 2018-02-04 20:30:39
_STATISTICS_TAGS                         : BPS DURATION NUMBER_OF_FRAMES NUMBER_OF_BYTES

Video
ID                                       : 1
Format                                   : AVC
Format/Info                              : Advanced Video Codec
Format profile                           : [email protected]
Format settings, CABAC                   : Yes
Format settings, ReFrames                : 4 frames
Codec ID                                 : V_MPEG4/ISO/AVC
Duration                                 : 40mn 37s
Bit rate mode                            : Variable
Bit rate                                 : 10.7 Mbps
Maximum bit rate                         : 15.0 Mbps
Width                                    : 1 920 pixels
Height                                   : 1 080 pixels
Display aspect ratio                     : 16:9
Frame rate                               : 25.000 fps
Original frame rate                      : 23.976 fps
Color space                              : YUV
Chroma subsampling                       : 4:2:0
Bit depth                                : 8 bits
Scan type                                : Progressive
Bits/(Pixel*Frame)                       : 0.206
Stream size                              : 3.03 GiB (93%)
Default                                  : Yes
Forced                                   : No
Color primaries                          : BT.709-5, BT.1361, IEC 61966-2-4, SMPTE RP177
Transfer characteristics                 : BT.709-5, BT.1361
Matrix coefficients                      : BT.709-5, BT.1361, IEC 61966-2-4 709, SMPTE RP177

Audio #1
ID                                       : 2
Format                                   : AC-3
Format/Info                              : Audio Coding 3
Mode extension                           : CM (complete main)
Codec ID                                 : A_AC3
Duration                                 : 40mn 37s
Bit rate mode                            : Constant
Bit rate                                 : 192 Kbps
Channel(s)                               : 2 channels
Channel positions                        : Front: L R
Sampling rate                            : 48.0 KHz
Bit depth                                : 16 bits
Compression mode                         : Lossy
Stream size                              : 55.8 MiB (2%)
Title                                    : ITA
Language                                 : Italian
Default                                  : Yes
Forced                                   : Yes

Audio #2
ID                                       : 3
Format                                   : AC-3
Format/Info                              : Audio Coding 3
Mode extension                           : CM (complete main)
Codec ID                                 : A_AC3
Duration                                 : 40mn 37s
Bit rate mode                            : Constant
Bit rate                                 : 384 Kbps
Channel(s)                               : 6 channels
Channel positions                        : Front: L C R, Side: L R, LFE
Sampling rate                            : 48.0 KHz
Bit depth                                : 16 bits
Compression mode                         : Lossy
Stream size                              : 112 MiB (3%)
Title                                    : ENG
Language                                 : English
Default                                  : No
Forced                                   : No

Text #1
ID                                       : 4
Format                                   : UTF-8
Codec ID                                 : S_TEXT/UTF8
Codec ID/Info                            : UTF-8 Plain Text
Title                                    : ITA - Forced
Language                                 : Italian
Default                                  : Yes
Forced                                   : Yes

Text #2
ID                                       : 5
Format                                   : UTF-8
Codec ID                                 : S_TEXT/UTF8
Codec ID/Info                            : UTF-8 Plain Text
Language                                 : Italian
Default                                  : No
Forced                                   : No

Text #3
ID                                       : 6
Format                                   : UTF-8
Codec ID                                 : S_TEXT/UTF8
Codec ID/Info                            : UTF-8 Plain Text
Language                                 : English
Default                                  : No
Forced                                   : No


[/spoiler]


.: Ringraziamenti :.




RESTATE IN SEED ALTRIMENTI





[/center]
Info: Per scaricare devi usare un client come uTorrent o Transmission
AnnounceURL
http://tracker.tntvillage.scambioetico.org:2710/announce
Hash f75b3b295a5de626a9a1fe9289073bfd98716397
Peers seeds: 67 , leech: 90
Size 3.96 GB
Completato 105x
Aggiunto 06.08.18 - 10:08:46
Uploader   ppb1
Votazione (Voti: 0)


Condividi questo bittorrent:


html/blog:


bbcode/forum:




Aggiungi Commento