#2Маши | U-prince The Series: The Foxy Pilot | Farsi/Persian 아는 와이프.Familiar.Wife.E02.180802.OpusSub
 * Dettagli Torrent   globale  | Commenti (1) 


- Brothers (2009) Tobey Maguire.720p.H264.italian.english.Ac3-5.1.sub.NUita.eng-MIRCrew -


Download via torrent:
Categoria bittorrent BDRip
Descrizione
Brothers (2009) Tobey Maguire.720p.H264.italian.english.Ac3-5.1.sub.NUita.eng-MIRCrew


NO FOUND ONLY ORIGINAL RELEASE



My release is always in double track audio italian and Original audio
for select it use VLC or dvd player home
not use wmp

Brothers

(2009)

Quality MIRCrew on HD 720p da  1,9 gb

SOTTOTITOLI PER NON UDENTI INCLUSI









Titolo originale Brothers
Lingua originale inglese
Paese di produzione Stati Uniti, Regno Unito
Anno 2009
Durata 105 min
Genere drammatico, guerra, thriller
Regia Jim Sheridan
Soggetto Susanne Bier,



   Tobey Maguire: capitano Sam Cahill
   Natalie Portman: Grace Cahill
   Jake Gyllenhaal: Tommy Cahill
   Clifton Collins Jr.: maggiore Cavazos
   Sam Shepard: Hank Cahill
   Mare Winningham: Elsie Cahill
   Bailee Madison: Isabelle Cahill
   Taylor Geare: Maggie Cahill
   Patrick Flueger: soldato Joe Willis
   Carey Mulligan: Cassie Willis
   Jenny Wade: Tina
   Navid Negahban: Murad
   Omid Abtahi: Yusuf
   Enayat Delawary: Ahmed
   Ethan Suplee: Sweeney
   Arron Shiver: A.J.
   Ray Prewitt: Owen



Midwest, ottobre 2007. Sam Cahill è un giovane capitano dei Marines degli Stati Uniti, comandante di una compagnia stanziata a Fort Mahlus; è sposato con la bellissima Grace e padre di due adorabili figlie, Isabelle e Maggie. Mentre suo fratello minore Tommy esce di prigione, dove era stato rinchiuso per aver commesso una rapina a mano armata, Sam rivela di dover partire per un quarto turno di servizio in Afghanistan: il suo granitico senso del dovere lo porta ad ignorare le preoccupazioni e i bisogni della sua famig



Before leaving on his second tour in Afghanistan, Marine Captain Sam Cahill, a leader, an athlete, a good husband and father, welcomes his screw-up brother Tommy home from prison. He'd robbed a bank. In country, Sam's helicopter is shot down and all are presumed dead. Back home, while Sam wastes away as a prisoner in a remote encampment, Tommy tries to take care of the widow and her two children.







[spoiler]
General
Unique ID                                : 268309000693206151537186953371573148190 (0xC9DA6F12A710FDD10D4E6393DD51DA1E)
Complete name                            : Brothers (2009).720p.ita.eng.sub.NUita.eng-MIRCrew\Brothers.(2009.720p.ita.eng.sub.ita.eng-MIRCrew.mkv
Format                                   : Matroska
Format version                           : Version 2
File size                                : 1.96 GiB
Duration                                 : 1h 40mn
Overall bit rate                         : 2 787 Kbps
Movie name                               : MIRCrew
Encoded date                             : UTC 2018-08-02 08:53:41
Writing application                      : Lavf54.63.100
Writing library                          : Lavf54.63.100
COPYRIGHT                                : robbyrs

Video
ID                                       : 1
Format                                   : AVC
Format/Info                              : Advanced Video Codec
Format profile                           : [email protected]
Format settings, CABAC                   : Yes
Format settings, ReFrames                : 2 frames
Codec ID                                 : V_MPEG4/ISO/AVC
Duration                                 : 1h 40mn
Bit rate                                 : 1 900 Kbps
Width                                    : 1 280 pixels
Height                                   : 528 pixels
Display aspect ratio                     : 2.40:1
Frame rate mode                          : Variable
Frame rate                               : 25.000 fps
Color space                              : YUV
Chroma subsampling                       : 4:2:0
Bit depth                                : 8 bits
Scan type                                : Progressive
Bits/(Pixel*Frame)                       : 0.112
Stream size                              : 1.29 GiB (66%)
Writing library                          : x264 core 130 r2273
Encoding settings                        : cabac=1 / ref=2 / deblock=1:0:0 / analyse=0x1:0x131 / me=hex / subme=7 / psy=1 / psy_rd=1.00:0.00 / mixed_ref=0 / me_range=16 / chroma_me=1 / trellis=1 / 8x8dct=0 / cqm=0 / deadzone=21,11 / fast_pskip=1 / chroma_qp_offset=-2 / threads=3 / lookahead_threads=1 / sliced_threads=0 / nr=0 / decimate=1 / interlaced=0 / bluray_compat=0 / constrained_intra=0 / bframes=3 / b_pyramid=0 / b_adapt=1 / b_bias=0 / direct=3 / weightb=1 / open_gop=0 / weightp=2 / keyint=250 / keyint_min=25 / scenecut=40 / intra_refresh=0 / rc_lookahead=40 / rc=abr / mbtree=1 / bitrate=1900 / ratetol=1.0 / qcomp=0.60 / qpmin=10 / qpmax=69 / qpstep=4 / vbv_maxrate=24000 / vbv_bufsize=24000 / nal_hrd=none / ip_ratio=1.40 / aq=1:1.00
Language                                 : Italian
Default                                  : Yes
Forced                                   : No
DURATION                                 : 01:40:26.800000000
NUMBER_OF_FRAMES                         : 150670
NUMBER_OF_BYTES                          : 5707052947
_STATISTICS_WRITING_APP                  : mkvmerge v9.1.0 ('Little Earthquakes') 64bit
_STATISTICS_WRITING_DATE_UTC             : 2016-05-10 11:49:00
_STATISTICS_TAGS                         : BPS DURATION NUMBER_OF_FRAMES NUMBER_OF_BYTES

Audio #1
ID                                       : 2
Format                                   : AC-3
Format/Info                              : Audio Coding 3
Mode extension                           : CM (complete main)
Codec ID                                 : A_AC3
Duration                                 : 1h 40mn
Bit rate mode                            : Constant
Bit rate                                 : 448 Kbps
Channel(s)                               : 6 channels
Channel positions                        : Front: L C R, Side: L R, LFE
Sampling rate                            : 48.0 KHz
Bit depth                                : 16 bits
Compression mode                         : Lossy
Delay relative to video                  : 1mn 5s
Stream size                              : 322 MiB (16%)
Language                                 : Italian
Default                                  : Yes
Forced                                   : No
DURATION                                 : 01:40:19.552000000
NUMBER_OF_FRAMES                         : 188111
NUMBER_OF_BYTES                          : 337094912
_STATISTICS_WRITING_APP                  : mkvmerge v9.1.0 ('Little Earthquakes') 64bit
_STATISTICS_WRITING_DATE_UTC             : 2016-05-10 11:49:00
_STATISTICS_TAGS                         : BPS DURATION NUMBER_OF_FRAMES NUMBER_OF_BYTES

Audio #2
ID                                       : 3
Format                                   : AC-3
Format/Info                              : Audio Coding 3
Mode extension                           : CM (complete main)
Codec ID                                 : A_AC3
Duration                                 : 1h 40mn
Bit rate mode                            : Constant
Bit rate                                 : 448 Kbps
Channel(s)                               : 6 channels
Channel positions                        : Front: L C R, Side: L R, LFE
Sampling rate                            : 48.0 KHz
Bit depth                                : 16 bits
Compression mode                         : Lossy
Delay relative to video                  : 1mn 5s
Stream size                              : 322 MiB (16%)
Language                                 : English
Default                                  : No
Forced                                   : No
DURATION                                 : 01:40:20.576000000
NUMBER_OF_FRAMES                         : 188143
NUMBER_OF_BYTES                          : 481646080
_STATISTICS_WRITING_APP                  : mkvmerge v9.1.0 ('Little Earthquakes') 64bit
_STATISTICS_WRITING_DATE_UTC             : 2016-05-10 11:49:00
_STATISTICS_TAGS                         : BPS DURATION NUMBER_OF_FRAMES NUMBER_OF_BYTES

Menu
00:00:00.000                             : :00:00:00.000
00:12:01.920                             : :00:12:01.920
00:17:55.200                             : :00:17:55.200
00:23:02.400                             : :00:23:02.400
00:31:26.400                             : :00:31:26.400
00:41:40.800                             : :00:41:40.800
00:45:58.080                             : :00:45:58.080
00:52:33.600                             : :00:52:33.600
00:57:13.920                             : :00:57:13.920
01:00:25.920                             : :01:00:25.920
01:03:56.160                             : :01:03:56.160
01:10:07.680                             : :01:10:07.680
01:18:36.480                             : :01:18:36.480
01:24:58.560                             : :01:24:58.560
01:33:54.240                             : :01:33:54.240
01:36:30.720                             : :01:36:30.720




[/spoiler]



Info: Per scaricare devi usare un client come uTorrent o Transmission
AnnounceURL
udp://tracker.coppersurfer.tk:6969/announce
Hash 21c3551d7b666d8b74f1a1c5fb8d25da879ba57c
Peers seeds: 31 , leech: 11
Size 1.96 GB
Completato 1394x
Aggiunto 05.08.18 - 22:08:04
Uploader   robbyrs
Votazione (Voti: 2)


Condividi questo bittorrent:


html/blog:


bbcode/forum:




Aggiungi Commento
Ultimi commenti
  
Perfetto come sempre grazie!
08/08 00.23
Tutti commenti (1)