Anohana (dub) | Skyscraper | tagАвангард и Сюрреализм
 * Dettagli Torrent   globale  | Commenti (0) 


- Lo specialista - The Specialist (1994).720p.H264.italian.english.Ac3-5.1.sub.ita.eng-MIRCrew -


Download via torrent:
Categoria bittorrent BDRip
Descrizione
Lo specialista - The Specialist (1994).720p.H264.italian.english.Ac3-5.1.sub.ita.eng-MIRCrew



NO FOUND ONLY ORIGINAL RELEASE


My release is always in double track audio italian and Original audio
for select it use VLC or dvd player home
not use wmp

Lo specialista - The Specialist

(1994)

Quality MIRCrew on HD 720p da  1,9 gb









Titolo originale The Specialist
Lingua originale inglese
Paese di produzione Stati Uniti d'America
Anno 1994
Durata 110 min
Rapporto 1,85 : 1
Genere azione, thriller, drammatico
Regia Luis Llosa
Soggetto John Shirley
Sceneggiatura Alexandra Seros



   Sylvester Stallone: Ray Quick
   Sharon Stone: May Munro
   James Woods: Ned Trent
   Rod Steiger: Joe Leon
   Eric Roberts: Thomas Leon
   Mario Ernesto Sánchez: Charlie
   Sergio Doré Jr.: Strongarm
   Chase Randolph: padre di May
   Jeana Bell: madre di May
   Brittany Paige Bouck: May da bambina



Dopo molti anni passati col rimorso, May Munro è decisa a vendicarsi per la morte dei genitori. Contatta Ray Quick, ormai un ex agente della CIA, per eseguire la sua vendetta. Inizialmente Ray rifiuta l'incarico, ma allo stesso tempo comincia a seguire, all'insaputa della ragazza, il caso.



A woman entices a bomb expert she's involved with into destroying the mafia that killed her family.







[spoiler]
General
Unique ID                                : 173827166924908859377000070645615165735 (0x82C5E50409C780969442F973E7F00127)
Complete name                            : Lo specialista - The Specialist (1994).720p.ita.eng.sub.ita.eng-MIRCrew\Lo specialista - The Specialist (1994).720p.ita.eng.sub.ita.eng-MIRCrew.mkv
Format                                   : Matroska
Format version                           : Version 2
File size                                : 1.96 GiB
Duration                                 : 1h 49mn
Overall bit rate                         : 2 547 Kbps
Movie name                               : MIRCrew
Encoded date                             : UTC 2018-08-02 13:23:04
Writing application                      : mkvmerge v5.4.0 ('Piper') built on Mar 10 2012 13:34:39
Writing library                          : Lavf54.63.100
COPYRIGHT                                : robbyrs

Video
ID                                       : 1
Format                                   : AVC
Format/Info                              : Advanced Video Codec
Format profile                           : [email protected]
Format settings, CABAC                   : Yes
Format settings, ReFrames                : 2 frames
Codec ID                                 : V_MPEG4/ISO/AVC
Duration                                 : 1h 49mn
Bit rate                                 : 1 900 Kbps
Width                                    : 1 296 pixels
Height                                   : 720 pixels
Display aspect ratio                     : 16:9
Original display aspect ratio            : 16:9
Frame rate mode                          : Variable
Frame rate                               : 23.976 fps
Color space                              : YUV
Chroma subsampling                       : 4:2:0
Bit depth                                : 8 bits
Scan type                                : Progressive
Bits/(Pixel*Frame)                       : 0.085
Stream size                              : 1.43 GiB (73%)
Writing library                          : x264 core 130 r2273
Encoding settings                        : cabac=1 / ref=2 / deblock=1:0:0 / analyse=0x1:0x131 / me=hex / subme=7 / psy=1 / psy_rd=1.00:0.00 / mixed_ref=0 / me_range=16 / chroma_me=1 / trellis=1 / 8x8dct=0 / cqm=0 / deadzone=21,11 / fast_pskip=1 / chroma_qp_offset=-2 / threads=3 / lookahead_threads=1 / sliced_threads=0 / nr=0 / decimate=1 / interlaced=0 / bluray_compat=0 / constrained_intra=0 / bframes=3 / b_pyramid=0 / b_adapt=1 / b_bias=0 / direct=3 / weightb=1 / open_gop=0 / weightp=2 / keyint=230 / keyint_min=23 / scenecut=40 / intra_refresh=0 / rc_lookahead=40 / rc=abr / mbtree=1 / bitrate=1900 / ratetol=1.0 / qcomp=0.60 / qpmin=10 / qpmax=69 / qpstep=4 / vbv_maxrate=24000 / vbv_bufsize=24000 / nal_hrd=none / ip_ratio=1.40 / aq=1:1.00
Default                                  : Yes
Forced                                   : No
HANDLER_NAME                             : VideoHandler

Audio #1
ID                                       : 2
Format                                   : AC-3
Format/Info                              : Audio Coding 3
Mode extension                           : CM (complete main)
Codec ID                                 : A_AC3
Duration                                 : 1h 49mn
Bit rate mode                            : Constant
Bit rate                                 : 448 Kbps
Channel(s)                               : 6 channels
Channel positions                        : Front: L C R, Side: L R, LFE
Sampling rate                            : 48.0 KHz
Bit depth                                : 16 bits
Compression mode                         : Lossy
Delay relative to video                  : -42ms
Stream size                              : 352 MiB (18%)
Title                                    : Ita Ac3 5.1
Default                                  : No
Forced                                   : No
HANDLER_NAME                             : SoundHandler

Audio #2
ID                                       : 3
Format                                   : AC-3
Format/Info                              : Audio Coding 3
Mode extension                           : CM (complete main)
Codec ID                                 : A_AC3
Duration                                 : 1h 49mn
Bit rate mode                            : Constant
Bit rate                                 : 192 Kbps
Channel(s)                               : 2 channels
Channel positions                        : Front: L R
Sampling rate                            : 48.0 KHz
Bit depth                                : 16 bits
Compression mode                         : Lossy
Delay relative to video                  : -5ms
Stream size                              : 151 MiB (8%)
Title                                    : Eng Ac3 5.1
Language                                 : English
Default                                  : No
Forced                                   : No


[/spoiler]



Info: Per scaricare devi usare un client come uTorrent o Transmission
AnnounceURL
udp://tracker.coppersurfer.tk:6969/announce
Hash c95dbf2a910c1aa7bb798a95fb6fe7032a9dbcf8
Peers seeds: 30 , leech: 9
Size 1.96 GB
Completato 724x
Aggiunto 05.08.18 - 17:08:11
Uploader   robbyrs
Votazione (Voti: 1)


Condividi questo bittorrent:


html/blog:


bbcode/forum:




Aggiungi Commento