VER PELICULA | supernet | Voir film
 * Dettagli Torrent   globale  | Commenti (0) 


- La dama rossa uccide sette volte (1972).H264.italian.english.Ac3.sub.eng-MIRCrew -


Download via torrent:
Categoria bittorrent BDRip
Descrizione
The Red Queen Kills Seven Times - La dama rossa uccide sette volte (1972).H264.italian.english.Ac3.sub.eng-MIRCrew


NO FOUND ONLY ORIGINAL RELEASE

My release is always in double track audio italian and Original audio
for select it use VLC or dvd player home
not use wmp

La dama rossa uccide sette volte - The Red Queen Kills Seven Times

(1972)









Paese di produzione Italia
Anno 1972
Durata 98 min
Genere giallo, Thriller, Horror
Regia Emilio P. Miraglia
Soggetto Emilio P. Miraglia, Fabio Pittorru
Sceneggiatura Emilio P. Miraglia, Fabio Pittorru



   Ugo Pagliai: Martin Hoffmann
   Barbara Bouchet: Ketty Wildenbrück
   Maria Pia Giancaro: Rose Mary Müller
   Rudolf Schündler: Tobias Wildenbrück
   Marina Malfatti: Franziska Wildenbrück
   Marino Masè: isp. Toller
   Sybil Danning: Lulù Palm
   Nino Korda: Herbert
   Fabrizio Moresco: Petar
   Bruno Bertocci: Hans Mayer
   Carla Mancini: la cameriera di villa Wildenbrück



Baviera. Due bambine litigano tra di loro. Sono due sorelle discendenti dell'antica famiglia dei Wildenbrück, la bionda Ketty e la bruna Eveline, cui dopo l'ennesima lite il nonno svela un segreto che coinvolge l'intera stirpe dei Wildenbrück e che è raffigurato in un quadro appeso nel salone dell'antico castello dove abitano. Si tratta di una "Oscura Leggenda" che vede rivali in amore proprio due sorelle loro antenate, la Dama Rossa e la Dama Nera: la leggenda vuole che ogni cento anni la



When two sisters inherit their family castle, a string of murders committed by a mysterious dark haired woman in a red cloak decimates their circle of friends. Is the killer their ancestor,....







[spoiler]
General
Unique ID                                : 209854763880316287332131315052607697064 (0x9DE08EAFFE3B0370B29AB772DF67F0A
Complete name                            : La dama rossa uccide sette volte - The Red Queen Kills Seven Times (1972).h264.ita.eng-MIRCrew\La dama rossa uccide sette volte - The Red Queen Kills Seven Times (1972).h264.ita.eng-MIRCrew.mkv
Format                                   : Matroska
Format version                           : Version 2
File size                                : 1.17 GiB
Duration                                 : 1h 39mn
Overall bit rate                         : 1 683 Kbps
Movie name                               : MIRCrew
Encoded date                             : UTC 2018-08-03 18:32:45
Writing application                      : mkvmerge v5.4.0 ('Piper') built on Mar 10 2012 13:34:39
Writing library                          : Lavf54.63.100
COPYRIGHT                                : robbyrs

Video
ID                                       : 1
Format                                   : AVC
Format/Info                              : Advanced Video Codec
Format profile                           : [email protected]
Format settings, CABAC                   : Yes
Format settings, ReFrames                : 2 frames
Codec ID                                 : V_MPEG4/ISO/AVC
Duration                                 : 1h 39mn
Bit rate                                 : 1 300 Kbps
Width                                    : 720 pixels
Height                                   : 304 pixels
Display aspect ratio                     : 2.35:1
Original display aspect ratio            : 2.35:1
Frame rate mode                          : Variable
Frame rate                               : 23.976 fps
Color space                              : YUV
Chroma subsampling                       : 4:2:0
Bit depth                                : 8 bits
Scan type                                : Progressive
Bits/(Pixel*Frame)                       : 0.248
Stream size                              : 899 MiB (75%)
Writing library                          : x264 core 130 r2273
Encoding settings                        : cabac=1 / ref=2 / deblock=1:0:0 / analyse=0x1:0x131 / me=hex / subme=7 / psy=1 / psy_rd=1.00:0.00 / mixed_ref=0 / me_range=16 / chroma_me=1 / trellis=1 / 8x8dct=0 / cqm=0 / deadzone=21,11 / fast_pskip=1 / chroma_qp_offset=-2 / threads=3 / lookahead_threads=1 / sliced_threads=0 / nr=0 / decimate=1 / interlaced=0 / bluray_compat=0 / constrained_intra=0 / bframes=3 / b_pyramid=0 / b_adapt=1 / b_bias=0 / direct=3 / weightb=1 / open_gop=0 / weightp=2 / keyint=230 / keyint_min=23 / scenecut=40 / intra_refresh=0 / rc_lookahead=40 / rc=abr / mbtree=1 / bitrate=1300 / ratetol=1.0 / qcomp=0.60 / qpmin=10 / qpmax=69 / qpstep=4 / vbv_maxrate=24000 / vbv_bufsize=24000 / nal_hrd=none / ip_ratio=1.40 / aq=1:1.00
Language                                 : Italian
Default                                  : Yes
Forced                                   : No

Audio #1
ID                                       : 2
Format                                   : AC-3
Format/Info                              : Audio Coding 3
Mode extension                           : CM (complete main)
Codec ID                                 : A_AC3
Duration                                 : 1h 39mn
Bit rate mode                            : Constant
Bit rate                                 : 192 Kbps
Channel(s)                               : 1 channel
Channel positions                        : Front: C
Sampling rate                            : 48.0 KHz
Bit depth                                : 16 bits
Compression mode                         : Lossy
Delay relative to video                  : -5ms
Stream size                              : 136 MiB (11%)
Title                                    : Mono
Language                                 : Italian
Default                                  : No
Forced                                   : No

Audio #2
ID                                       : 3
Format                                   : AC-3
Format/Info                              : Audio Coding 3
Mode extension                           : CM (complete main)
Codec ID                                 : A_AC3
Duration                                 : 1h 39mn
Bit rate mode                            : Constant
Bit rate                                 : 192 Kbps
Channel(s)                               : 1 channel
Channel positions                        : Front: C
Sampling rate                            : 48.0 KHz
Bit depth                                : 16 bits
Compression mode                         : Lossy
Delay relative to video                  : -5ms
Stream size                              : 136 MiB (11%)
Title                                    : Mono
Language                                 : English
Default                                  : No
Forced                                   : No

Menu
00:00:00.000                             : :Chapter 1
00:06:39.023                             : :Chapter 2
00:13:02.782                             : :Chapter 3
00:21:27.911                             : :Chapter 4
00:30:25.281                             : :Chapter 5
00:40:39.478                             : :Chapter 6
00:49:07.027                             : :Chapter 7
00:57:17.600                             : :Chapter 8
01:04:12.682                             : :Chapter 9
01:12:42.650                             : :Chapter 10
01:24:17.761                             : :Chapter 11
01:30:24.085                             : :Chapter 12



[/spoiler]



Info: Per scaricare devi usare un client come uTorrent o Transmission
AnnounceURL
udp://tracker.coppersurfer.tk:6969/announce
Hash ab310ceb0994dbb81dc67a4f8af28cce9b0bc97e
Peers seeds: 22 , leech: 8
Size 1.17 GB
Completato 376x
Aggiunto 04.08.18 - 16:08:30
Uploader   robbyrs
Votazione (Voti: 0)


Condividi questo bittorrent:


html/blog:


bbcode/forum:




Aggiungi Commento