Hakata Tonkotsu Ramens | CM - Creative Presentation Vertical Creative Presentation Vertical 686236 | Why Him? (2016)
 * Dettagli Torrent   globale  | Commenti (0) 


- Un condannato a morte è fuggito (1956) - BDmux 720p x264 - Ita Fra AC3 - Multisub - Orgazmo -


Download via torrent:
Categoria bittorrent BDRip
Descrizione
Un condannato a morte è fuggito (1956)






Titolo originale » Un condamné à mort s'est échappé
Nazionalità » Francia
Anno » 1956
Durata » 99'
Genere » Drammatico, Guerra
Regia » Robert Bresson

Cast:
François Leterrier, Charles Le Clainche, Maurice Beerblock,
Roland Monod, Jacques Ertaud, Jean Paul Delhumeau,
Roger Treherne, Jean Philippe Delamarre, Jacques Oerlemans.


Trama

Dopo l'interrogatorio della Gestapo, un prigioniero politico tenta la fuga, ma viene riacciuffato e lasciato privo di sensi in una cella. Da quel momento si dedica con meticolosità a ideare un piano di fuga. L'arrivo di un nuovo compagno di cella gli fa temere di essere spiato, ma la condanna a morte gli infonde nuove forze. Trascorsi momenti di angoscia, riesce ad attuare felicemente il suo piano e a riconquistare la libertà.


Screenshoots




Report del file

General
Unique ID: 78726484112717283954309215377592558823 (0x3B3A2B585A37AF33C9870548B70624E7)
Complete name: Un condannato a morte è fuggito (A man escaped 1956) - BDmux 720p x264 - Ita Fra AC3 - Multisub - Orgazmo.mkv
Format: Matroska
Format version: Version 4 / Version 2
File size: 4.26 GiB
Duration: 1h 40mn
Overall bit rate: 6 035 Kbps
Movie name: Un condannato a morte è fuggito (Robert Bresson, 1956) - Orgazmo
Encoded date: UTC 2018-03-13 13:24:02
Writing application: mkvmerge v21.0.0 ('Tardigrades Will Inherit The Earth') 64-bit
Writing library: libebml v1.3.5 + libmatroska v1.4.8
DURATION: 01:40:58.656000000
NUMBER_OF_FRAMES: 189333
NUMBER_OF_BYTES: 145407744
_STATISTICS_WRITING_APP: mkvmerge v21.0.0 ('Tardigrades Will Inherit The Earth') 64-bit
_STATISTICS_WRITING_DATE_UTC: 2018-03-13 13:24:02
_STATISTICS_TAGS: BPS DURATION NUMBER_OF_FRAMES NUMBER_OF_BYTES

Video
ID: 1
Format: AVC
Format/Info: Advanced Video Codec
Format profile: [email protected]
Format settings, CABAC: Yes
Format settings, ReFrames: 5 frames
Codec ID: V_MPEG4/ISO/AVC
Duration: 1h 40mn
Bit rate: 5 648 Kbps
Width: 960 pixels
Height: 720 pixels
Display aspect ratio: 4:3
Frame rate mode: Constant
Frame rate: 23.976 fps
Color space: YUV
Chroma subsampling: 4:2:0
Bit depth: 8 bits
Scan type: Progressive
Bits/(Pixel*Frame): 0.341
Stream size: 3.90 GiB (92%)
Title: Un condannato a morte è fuggito (Robert Bresson, 1956)
Writing library: x264 core 130 r2273 b3065e6
Encoding settings: cabac=1 / ref=5 / deblock=1:-3:-3 / analyse=0x3:0x113 / me=umh / subme=8 / psy=1 / psy_rd=1.00:0.00 / mixed_ref=1 / me_range=16 / chroma_me=1 / trellis=1 / 8x8dct=1 / cqm=0 / deadzone=21,11 / fast_pskip=1 / chroma_qp_offset=-2 / threads=18 / lookahead_threads=3 / sliced_threads=0 / nr=0 / decimate=1 / interlaced=0 / bluray_compat=0 / constrained_intra=0 / bframes=3 / b_pyramid=2 / b_adapt=2 / b_bias=0 / direct=3 / weightb=1 / open_gop=0 / weightp=2 / keyint=240 / keyint_min=23 / scenecut=40 / intra_refresh=0 / rc_lookahead=50 / rc=2pass / mbtree=1 / bitrate=5648 / ratetol=1.0 / qcomp=0.60 / qpmin=0 / qpmax=69 / qpstep=4 / cplxblur=20.0 / qblur=0.5 / ip_ratio=1.40 / aq=1:1.00
Language: French
Default: Yes
Forced: No
DURATION: 01:40:58.636000000
NUMBER_OF_FRAMES: 145262
NUMBER_OF_BYTES: 4277517641
_STATISTICS_WRITING_APP: mkvmerge v21.0.0 ('Tardigrades Will Inherit The Earth') 64-bit
_STATISTICS_WRITING_DATE_UTC: 2018-03-13 13:24:02
_STATISTICS_TAGS: BPS DURATION NUMBER_OF_FRAMES NUMBER_OF_BYTES

Audio #1
ID: 2
Format: AC-3
Format/Info: Audio Coding 3
Mode extension: CM (complete main)
Format settings, Endianness: Big
Codec ID: A_AC3
Duration: 1h 40mn
Bit rate mode: Constant
Bit rate: 192 Kbps
Channel count: 1 channel
Channel positions: Front: C
Sampling rate: 48.0 KHz
Bit depth: 16 bits
Compression mode: Lossy
Stream size: 139 MiB (3%)
Title: Italiano AC3 1.0 192Kbps
Language: Italian
Default: Yes
Forced: No

Audio #2
ID: 3
Format: AC-3
Format/Info: Audio Coding 3
Mode extension: CM (complete main)
Format settings, Endianness: Big
Codec ID: A_AC3
Duration: 1h 40mn
Bit rate mode: Constant
Bit rate: 192 Kbps
Channel count: 1 channel
Channel positions: Front: C
Sampling rate: 48.0 KHz
Bit depth: 16 bits
Compression mode: Lossy
Stream size: 139 MiB (3%)
Title: Français AC3 1.0 192Kbps
Language: Finnish
Default: No
Forced: No

Text #1
ID: 4
Format: UTF-8
Codec ID: S_TEXT/UTF8
Codec ID/Info: UTF-8 Plain Text
Title: Italiano (Forced)
Language: Italian
Default: Yes
Forced: No

Text #2
ID: 5
Format: UTF-8
Codec ID: S_TEXT/UTF8
Codec ID/Info: UTF-8 Plain Text
Title: Italiano (Retail Subtitles)
Language: Italian
Default: No
Forced: No

Text #3
ID: 6
Format: UTF-8
Codec ID: S_TEXT/UTF8
Codec ID/Info: UTF-8 Plain Text
Title: Italiano (Yound Subtitles)
Language: Italian
Default: No
Forced: No

Text #4
ID: 7
Format: UTF-8
Codec ID: S_TEXT/UTF8
Codec ID/Info: UTF-8 Plain Text
Title: English
Language: English
Default: No
Forced: No

Text #5
ID: 8
Format: UTF-8
Codec ID: S_TEXT/UTF8
Codec ID/Info: UTF-8 Plain Text
Title: Español
Language: Spanish
Default: No
Forced: No

Text #6
ID: 9
Format: UTF-8
Codec ID: S_TEXT/UTF8
Codec ID/Info: UTF-8 Plain Text
Title: Português
Language: Portuguese
Default: No
Forced: No

Text #7
ID: 10
Format: UTF-8
Codec ID: S_TEXT/UTF8
Codec ID/Info: UTF-8 Plain Text
Title: Dansk
Language: Danish
Default: No
Forced: No

Text #8
ID: 11
Format: UTF-8
Codec ID: S_TEXT/UTF8
Codec ID/Info: UTF-8 Plain Text
Title: ?eština
Language: Czech
Default: No
Forced: No

Menu
17 Chapters





Info: Per scaricare devi usare un client come uTorrent o Transmission
AnnounceURL
udp://tracker.tntvillage.scambioetico.org:2710/announce
Hash 1b9ce6a015a25a8e70a5854a80ca98018388d211
Peers seeds: 1 , leech: 0
Size 4.26 GB
Completato 0x
Aggiunto 04.08.18 - 13:08:43
Uploader   Orgazmo
Votazione (Voti: 0)


Condividi questo bittorrent:


html/blog:


bbcode/forum:




Aggiungi Commento