Fairy Tail 458 | 迅雷链接 | The Librarians
 * Dettagli Torrent   globale  | Commenti (0) 


- Sister Act 2: Back in the Habit (1993).720p.H264.italian.english.Ac3-5.1.multisub-MIRCrew -


Download via torrent:
Categoria bittorrent BDRip
Descrizione
Sister Act 2: Back in the Habit (1993).720p.H264.italian.english.Ac3-5.1.multisub-MIRCrew



NO FOUND ONLY ORIGINAL RELEASE



My release is always in double track audio italian and Original audio
for select it use VLC or dvd player home
not use wmp

Sister Act 2: Back in the Habit (1993)

Quality MIRCrew on HD 720p da  2,0 gb









Sister Act 2.jpg
Una scena del film
Titolo originale Sister Act 2: Back in the Habit
Paese di produzione USA
Anno 1993
Durata 103 min
Genere commedia, musicale
Regia Bill Duke
Sceneggiatura Jim Cruickshank, Judi Ann Mason, James Orr



Whoopi Goldberg: Deloris Van Cartier/Suor Maria Claretta
Maggie Smith: Madre Superiora
Kathy Najimy: Suor Maria Patrizia
Wendy Makkena: Suor Maria Roberta
Mary Wickes: Suor Maria Lazzara
Barnard Hughes: Padre Maurice
Michael Jeter: Padre Ignazio
Thomas Gottschalk: Padre Wolfgang



Deloris Van Cartier, abbandonati i panni da suora, riprende la sua attività da showgirl dei casinò. Una sera, durante un suo spettacolo a Las Vegas, riceve la visita delle sue amiche ex consorelle Suor Maria Patrizia, Suor Maria Roberta e Suor Maria Lazzara. Vedendole, Deloris si rallegra molto, poiché non le vedeva da tanto tempo.



Showgirl Deloris Van Cartier returns as Sister Mary Clarence to teach music to a group of Catholic students whose run-down school is slated for closure.







[spoiler]
General
Complete name                            : Sister Act 2 - Back in the Habit.720p .h264.ita.eng.multisub-MIRCrew\Sister Act 2  Sister Act 2 - Più svitata che mai - Sister Act 2 Back in the Habit.720p .h264.ita.eng.multisub-MIRCrew.mkv
Format                                   : Matroska
Format version                           : Version 2
File size                                : 1.99 GiB
Duration                                 : 1h 47mn
Overall bit rate                         : 2 655 Kbps
Encoded date                             : UTC 2018-07-28T06:39:52Z
Writing application                      : mkvmerge v5.4.0 ('Piper') built on Mar 10 2012 13:34:39
Writing library                          : Lavf55.12.0

Video
ID                                       : 1
Format                                   : AVC
Format/Info                              : Advanced Video Codec
Format profile                           : [email protected]
Format settings, CABAC                   : Yes
Format settings, ReFrames                : 4 frames
Codec ID                                 : V_MPEG4/ISO/AVC
Duration                                 : 1h 47mn
Bit rate                                 : 1 900 Kbps
Width                                    : 1 280 pixels
Height                                   : 688 pixels
Display aspect ratio                     : 1.860
Frame rate mode                          : Variable
Frame rate                               : 23.976 fps
Color space                              : YUV
Chroma subsampling                       : 4:2:0
Bit depth                                : 8 bits
Scan type                                : Progressive
Bits/(Pixel*Frame)                       : 0.090
Stream size                              : 1.37 GiB (69%)
Writing library                          : x264 core 142 r2479 dd79a61
Encoding settings                        : cabac=1 / ref=3 / deblock=1:0:0 / analyse=0x3:0x113 / me=hex / subme=7 / psy=1 / psy_rd=1.00:0.00 / mixed_ref=1 / me_range=16 / chroma_me=1 / trellis=1 / 8x8dct=1 / cqm=0 / deadzone=21,11 / fast_pskip=1 / chroma_qp_offset=-2 / threads=3 / lookahead_threads=1 / sliced_threads=0 / nr=0 / decimate=1 / interlaced=0 / bluray_compat=0 / constrained_intra=0 / bframes=3 / b_pyramid=2 / b_adapt=1 / b_bias=0 / direct=1 / weightb=1 / open_gop=0 / weightp=2 / keyint=240 / keyint_min=24 / scenecut=40 / intra_refresh=0 / rc_lookahead=40 / rc=abr / mbtree=1 / bitrate=1900 / ratetol=1.0 / qcomp=0.60 / qpmin=0 / qpmax=69 / qpstep=4 / vbv_maxrate=62500 / vbv_bufsize=78125 / nal_hrd=none / filler=0 / ip_ratio=1.40 / aq=1:1.00
Language                                 : Italian
Default                                  : Yes
Forced                                   : No
Color primaries                          : BT.709-5, BT.1361, IEC 61966-2-4, SMPTE RP177
Transfer characteristics                 : BT.709-5, BT.1361
Matrix coefficients                      : BT.709-5, BT.1361, IEC 61966-2-4 709, SMPTE RP177

Audio #1
ID                                       : 2
Format                                   : AC-3
Format/Info                              : Audio Coding 3
Mode extension                           : CM (complete main)
Codec ID                                 : A_AC3
Duration                                 : 1h 47mn
Bit rate mode                            : Constant
Bit rate                                 : 384 Kbps
Channel(s)                               : 6 channels
Channel positions                        : Front: L C R, Side: L R, LFE
Sampling rate                            : 48.0 KHz
Bit depth                                : 16 bits
Compression mode                         : Lossy
Delay relative to video                  : -5ms
Stream size                              : 294 MiB (14%)
Title                                    : ita Ac3 5.1
Language                                 : Italian
Default                                  : Yes
Forced                                   : No

Audio #2
ID                                       : 3
Format                                   : AC-3
Format/Info                              : Audio Coding 3
Mode extension                           : CM (complete main)
Codec ID                                 : A_AC3
Duration                                 : 1h 47mn
Bit rate mode                            : Constant
Bit rate                                 : 384 Kbps
Channel(s)                               : 6 channels
Channel positions                        : Front: L C R, Side: L R, LFE
Sampling rate                            : 48.0 KHz
Bit depth                                : 16 bits
Compression mode                         : Lossy
Delay relative to video                  : -5ms
Stream size                              : 294 MiB (14%)
Title                                    : eng Ac3 5.1
Language                                 : English
Default                                  : No
Forced                                   : No

Menu
00:00:00.000                             : :Opening Credits
00:08:30.092                             : :An Earnest Appeal
00:13:18.422                             : :Welcome Lunch
00:15:30.721                             : :A Word with Father Maurice
00:20:13.337                             : :The New Music Teacher
00:28:14.859                             : :Fusion
00:36:22.430                             : :A Brand-New Day
00:42:47.857                             : :"Ball of Confusion (That's What the World is Today)"
00:48:05.215                             : :In the Old Music Room
00:52:36.820                             : :"His Eye is on the Sparrow"
00:56:44.484                             : :Street Corner Talk
01:01:21.511                             : :"Oh, Happy Day"
01:09:15.359                             : :Mother's Rule
01:13:40.082                             : :"Dancing in the Street"
01:21:32.053                             : :At the Competition
01:31:21.934                             : :"Joyful, Joyful"
01:36:59.688                             : :And the Winner Is...
01:41:37.007                             : :End Credits / "Ain't No Mountain High Enough"



[/spoiler]



Info: Per scaricare devi usare un client come uTorrent o Transmission
AnnounceURL
udp://tracker.coppersurfer.tk:6969/announce
Hash 64d656ce9877eb2c220f6dacad83f94b42cdc355
Peers seeds: 17 , leech: 10
Size 2.03 GB
Completato 339x
Aggiunto 03.08.18 - 19:08:38
Uploader   robbyrs
Votazione (Voti: 0)


Condividi questo bittorrent:


html/blog:


bbcode/forum:




Aggiungi Commento