Desaparecidas En El Lago HDTV 720p AC3 5.1 | The Witness for the Prosecution | Ready Player One (2018)
 * Dettagli Torrent   globale  | Commenti (0) 


- Nome di donna (2018).720p.H264.italian.Ac3-5.1.sub.NUita-MIRCrew -


Download via torrent:
Categoria bittorrent BDRip
Descrizione
Nome di donna 2018.720p.H264.italian.Ac3-5.1.sub.NUita-MIRCrew



NO FOUND ONLY ORIGINAL RELEASE



My release is always in double track audio italian and Original audio
for select it use VLC or dvd player home
not use wmp

Nome di donna 2018

Quality MIRCrew on HD 720p da  1,5 gb

SOTTOTITOLI PER NON UDENTI INCLUSI








GENERE: Drammatico
ANNO: 2018
REGIA: Marco Tullio Giordana

PAESE: Italia
DURATA: 98 Min



Cristiana Capotondi, Valerio Binasco, Bebo Storti, Anita Kravos, Stefano Scandaletti, Adriana Asti, Michela Cescon, Laura Marinoni, Renato Sarti, Patrizia Punzo, Patrizia Piccinini, Vanessa Scalera, Linda Carini, Stefania Monaco



Una giovane madre single che all'inizio dell'estate decide di lasciare Milano e di trasferirsi con la figlia in un paesino della bassa Lombardia. Qui Nina trova impiego in una prestigiosa clinica privata per anziani, dove ha modo di relazionarsi con le altre donne che vi lavorano, alcune italiane e molte straniere.



Juggling angry Russians, the British Mi5, and an international terrorist, debonair art dealer and part-time rogue Charlie Mortdecai races to recover a stolen painting rumored to contain a code that leads to lost gold.  








[spoiler]
General
Unique ID                                : 167605471049355176387186522781978786664 (0x7E17A3B9CAB45C67D70BB056E788FB6
Complete name                            : Nome di donna 2018.720p.h264.ita.sub.NUita-MIRCrew
Format                                   : Matroska
Format version                           : Version 2
File size                                : 1.44 GiB
Duration                                 : 1h 31mn
Overall bit rate                         : 2 263 Kbps
Movie name                               : MIRCrew
Encoded date                             : UTC 2018-07-28 16:30:34
Writing application                      : Lavf54.63.100
Writing library                          : Lavf54.63.100
COPYRIGHT                                : robbyrs

Video
ID                                       : 1
Format                                   : AVC
Format/Info                              : Advanced Video Codec
Format profile                           : [email protected]
Format settings, CABAC                   : Yes
Format settings, ReFrames                : 2 frames
Codec ID                                 : V_MPEG4/ISO/AVC
Duration                                 : 1h 31mn
Bit rate                                 : 1 900 Kbps
Width                                    : 1 264 pixels
Height                                   : 528 pixels
Display aspect ratio                     : 2.40:1
Frame rate mode                          : Variable
Frame rate                               : 24.000 fps
Color space                              : YUV
Chroma subsampling                       : 4:2:0
Bit depth                                : 8 bits
Scan type                                : Progressive
Bits/(Pixel*Frame)                       : 0.119
Stream size                              : 1.17 GiB (81%)
Writing library                          : x264 core 130 r2273
Encoding settings                        : cabac=1 / ref=2 / deblock=1:0:0 / analyse=0x1:0x131 / me=hex / subme=7 / psy=1 / psy_rd=1.00:0.00 / mixed_ref=0 / me_range=16 / chroma_me=1 / trellis=1 / 8x8dct=0 / cqm=0 / deadzone=21,11 / fast_pskip=1 / chroma_qp_offset=-2 / threads=3 / lookahead_threads=1 / sliced_threads=0 / nr=0 / decimate=1 / interlaced=0 / bluray_compat=0 / constrained_intra=0 / bframes=3 / b_pyramid=0 / b_adapt=1 / b_bias=0 / direct=3 / weightb=1 / open_gop=0 / weightp=2 / keyint=240 / keyint_min=24 / scenecut=40 / intra_refresh=0 / rc_lookahead=40 / rc=abr / mbtree=1 / bitrate=1900 / ratetol=1.0 / qcomp=0.60 / qpmin=10 / qpmax=69 / qpstep=4 / vbv_maxrate=24000 / vbv_bufsize=24000 / nal_hrd=none / ip_ratio=1.40 / aq=1:1.00
Language                                 : Italian
Default                                  : Yes
Forced                                   : No
DURATION                                 : 01:31:13.042000000
NUMBER_OF_FRAMES                         : 131353
NUMBER_OF_BYTES                          : 5649507550
_STATISTICS_WRITING_APP                  : mkvmerge v9.7.1 ('Pandemonium') 64bit
_STATISTICS_WRITING_DATE_UTC             : 2018-06-23 11:35:38
_STATISTICS_TAGS                         : BPS DURATION NUMBER_OF_FRAMES NUMBER_OF_BYTES

Audio
ID                                       : 2
Format                                   : AC-3
Format/Info                              : Audio Coding 3
Mode extension                           : CM (complete main)
Codec ID                                 : A_AC3
Duration                                 : 1h 31mn
Bit rate mode                            : Constant
Bit rate                                 : 384 Kbps
Channel(s)                               : 2 channels
Channel positions                        : Front: L R
Sampling rate                            : 48.0 KHz
Bit depth                                : 16 bits
Compression mode                         : Lossy
Delay relative to video                  : 1mn 5s
Stream size                              : 251 MiB (17%)
Language                                 : Italian
Default                                  : No
Forced                                   : No
DURATION                                 : 01:31:13.984000000
NUMBER_OF_FRAMES                         : 171062
NUMBER_OF_BYTES                          : 437918720
_STATISTICS_WRITING_APP                  : mkvmerge v9.7.1 ('Pandemonium') 64bit
_STATISTICS_WRITING_DATE_UTC             : 2018-06-23 11:35:38
_STATISTICS_TAGS                         : BPS DURATION NUMBER_OF_FRAMES NUMBER_OF_BYTES

Menu
00:00:00.000                             : 01)00:00:00:000
00:00:37.000                             : 02)00:00:37:000
00:08:00.541                             : 03)00:08:00:541
00:18:26.250                             : 04)00:18:26:250
00:31:10.833                             : 05)00:31:10:833
00:36:21.125                             : 06)00:36:21:125
00:42:53.958                             : 07)00:42:53:958
00:49:14.416                             : 000:49:14:416
00:55:41.916                             : 09)00:55:41:916
01:02:07.291                             : 10)01:02:07:291
01:08:28.458                             : 11)01:08:28:458
01:18:48.875                             : 12)01:18:48:875
01:26:13.958                             : 13)01:26:13:958


[/spoiler]



Info: Per scaricare devi usare un client come uTorrent o Transmission
AnnounceURL
udp://tracker.coppersurfer.tk:6969/announce
Hash ab3c4b5efcf69d53226d2220c67afec7fd3d5e30
Peers seeds: 156 , leech: 45
Size 1.44 GB
Completato 2097x
Aggiunto 02.08.18 - 17:08:48
Uploader   robbyrs
Votazione (Voti: 0)


Condividi questo bittorrent:


html/blog:


bbcode/forum:




Aggiungi Commento