seksi demət erdən | Generación alien | Gotham City 1889: Um Conto de Batman Assistir Gotham City 1889: Um Conto de Batman 720p Dublado/Legendado Online A história baseada em um quadrinho publicado em 1989 que imagina o que aconteceria se o Cavaleiro das Trevas vivesse no século XIX enfrentasse Jack, o Estripador. A HQ tem roteiro de Brian Augustyn e arte de Mike Mignola. Ver filme Gotham City 1889: Um Conto de Batman Dublado/Legendado Ver Filme Batman: ...
 * Dettagli Torrent   globale  | Commenti (0) 


- Mortdecai (2015).720p.H264.italian.english.Ac3-5.1.sub.ita.eng-MIRCrew -


Download via torrent:
Categoria bittorrent BDRip
Descrizione
Mortdecai (2015).720p.H264.italian.english.Ac3-5.1.sub.ita.eng-MIRCrew



NO FOUND ONLY ORIGINAL RELEASE



My release is always in double track audio italian and Original audio
for select it use VLC or dvd player home
not use wmp

Mortdecai (2015)

Quality MIRCrew on HD 720p da  2,0 gb









Lingua originale inglese
Paese di produzione Stati Uniti d'America
Anno 2015
Durata 107 min
Rapporto 2,35:1
Genere azione, commedia, thriller, poliziesco, spionaggio, sentimentale
Regia David Koepp
Soggetto Kyril Bonfiglioli



   Johnny Depp: Charles Mortdecai
   Ewan McGregor: Ispettore Martland
   Gwyneth Paltrow: Johanna Mortdecai
   Paul Bettany: Jock Strapp
   Olivia Munn: Georgina Krampf
   Jeff Goldblum: Milton Krampf
   Michael Byrne: Duca di Asherboroughdon
   Jonny Pasvolsky: Emil
   Michael Culkin: Sir Graham
   Ulrich Thomsen: Roman Romanov



Charles Mortdecai ha fama di grande intrallazzatore, la sua specialità sono le opere d'arte di dubbia provenienza che rivende a personaggi a volte molto equivoci.



Juggling angry Russians, the British Mi5, and an international terrorist, debonair art dealer and part-time rogue Charlie Mortdecai races to recover a stolen painting rumored to contain a code that leads to lost gold.  







[spoiler]
General
Unique ID                                : 233595669452330846693094232963137187401 (0xAFBCE3B428719AC2909C516DB660AE49)
Complete name                            : Mortdecai (2015).720p.h264.ita.eng.sub.ita.eng-MIRCrew\Mortdecai (2015).720p.h264.ita.eng.sub.ita.eng-MIRCrew.mkv
Format                                   : Matroska
Format version                           : Version 2
File size                                : 2.07 GiB
Duration                                 : 1h 46mn
Overall bit rate                         : 2 781 Kbps
Movie name                               : MIRCrew
Encoded date                             : UTC 2018-08-01 08:01:18
Writing application                      : mkvmerge v5.4.0 ('Piper') built on Mar 10 2012 13:34:39
Writing library                          : Lavf54.63.100
COPYRIGHT                                : robbyrs

Video
ID                                       : 1
Format                                   : AVC
Format/Info                              : Advanced Video Codec
Format profile                           : [email protected]
Format settings, CABAC                   : Yes
Format settings, ReFrames                : 2 frames
Codec ID                                 : V_MPEG4/ISO/AVC
Duration                                 : 1h 46mn
Bit rate                                 : 1 900 Kbps
Width                                    : 1 264 pixels
Height                                   : 528 pixels
Display aspect ratio                     : 2.40:1
Frame rate mode                          : Variable
Frame rate                               : 23.976 fps
Color space                              : YUV
Chroma subsampling                       : 4:2:0
Bit depth                                : 8 bits
Scan type                                : Progressive
Bits/(Pixel*Frame)                       : 0.119
Stream size                              : 1.36 GiB (66%)
Writing library                          : x264 core 130 r2273
Encoding settings                        : cabac=1 / ref=2 / deblock=1:0:0 / analyse=0x1:0x131 / me=hex / subme=7 / psy=1 / psy_rd=1.00:0.00 / mixed_ref=0 / me_range=16 / chroma_me=1 / trellis=1 / 8x8dct=0 / cqm=0 / deadzone=21,11 / fast_pskip=1 / chroma_qp_offset=-2 / threads=3 / lookahead_threads=1 / sliced_threads=0 / nr=0 / decimate=1 / interlaced=0 / bluray_compat=0 / constrained_intra=0 / bframes=3 / b_pyramid=0 / b_adapt=1 / b_bias=0 / direct=3 / weightb=1 / open_gop=0 / weightp=2 / keyint=230 / keyint_min=23 / scenecut=40 / intra_refresh=0 / rc_lookahead=40 / rc=abr / mbtree=1 / bitrate=1900 / ratetol=1.0 / qcomp=0.60 / qpmin=10 / qpmax=69 / qpstep=4 / vbv_maxrate=24000 / vbv_bufsize=24000 / nal_hrd=none / ip_ratio=1.40 / aq=1:1.00
Language                                 : Italian
Default                                  : Yes
Forced                                   : No
DURATION                                 : 01:46:40.352000000
NUMBER_OF_FRAMES                         : 153455
NUMBER_OF_BYTES                          : 5757584421
_STATISTICS_WRITING_APP                  : mkvmerge v8.0.0 ('Til The Day That I Die') 32bit
_STATISTICS_WRITING_DATE_UTC             : 2015-06-27 07:43:41
_STATISTICS_TAGS                         : BPS DURATION NUMBER_OF_FRAMES NUMBER_OF_BYTES

Audio #1
ID                                       : 2
Format                                   : AC-3
Format/Info                              : Audio Coding 3
Mode extension                           : CM (complete main)
Codec ID                                 : A_AC3
Duration                                 : 1h 46mn
Bit rate mode                            : Constant
Bit rate                                 : 448 Kbps
Channel(s)                               : 6 channels
Channel positions                        : Front: L C R, Side: L R, LFE
Sampling rate                            : 48.0 KHz
Bit depth                                : 16 bits
Compression mode                         : Lossy
Delay relative to video                  : -5ms
Stream size                              : 342 MiB (16%)
Title                                    : Ita Ac3 5.1
Language                                 : Italian
Default                                  : No
Forced                                   : No
DURATION                                 : 01:46:40.384000000
NUMBER_OF_FRAMES                         : 200012
NUMBER_OF_BYTES                          : 512030720
_STATISTICS_WRITING_APP                  : mkvmerge v8.0.0 ('Til The Day That I Die') 32bit
_STATISTICS_WRITING_DATE_UTC             : 2015-06-27 07:43:41
_STATISTICS_TAGS                         : BPS DURATION NUMBER_OF_FRAMES NUMBER_OF_BYTES

Audio #2
ID                                       : 3
Format                                   : AC-3
Format/Info                              : Audio Coding 3
Mode extension                           : CM (complete main)
Codec ID                                 : A_AC3
Duration                                 : 1h 46mn
Bit rate mode                            : Constant
Bit rate                                 : 448 Kbps
Channel(s)                               : 6 channels
Channel positions                        : Front: L C R, Side: L R, LFE
Sampling rate                            : 48.0 KHz
Bit depth                                : 16 bits
Compression mode                         : Lossy
Delay relative to video                  : -5ms
Stream size                              : 342 MiB (16%)
Title                                    : Eng Ac3 5.1
Language                                 : English
Default                                  : No
Forced                                   : No
DURATION                                 : 01:46:40.363000000
NUMBER_OF_FRAMES                         : 600034
NUMBER_OF_BYTES                          : 1207268528
_STATISTICS_WRITING_APP                  : mkvmerge v8.0.0 ('Til The Day That I Die') 32bit
_STATISTICS_WRITING_DATE_UTC             : 2015-06-27 07:43:41
_STATISTICS_TAGS                         : BPS DURATION NUMBER_OF_FRAMES NUMBER_OF_BYTES

Menu
00:00:00.000                             : :00:00:00.000
00:00:35.786                             : :00:00:35.786
00:13:38.901                             : :00:13:38.901
00:27:16.677                             : :00:27:16.677
00:39:12.141                             : :00:39:12.141
00:53:34.044                             : :00:53:34.044
01:06:46.502                             : :01:06:46.502
01:22:06.255                             : :01:22:06.255
01:37:13.453                             : :01:37:13.453


[/spoiler]



Info: Per scaricare devi usare un client come uTorrent o Transmission
AnnounceURL
udp://tracker.coppersurfer.tk:6969/announce
Hash f44a392e9d5f954b65ef32cc3ccdb79533abdf39
Peers seeds: 61 , leech: 14
Size 2.07 GB
Completato 652x
Aggiunto 02.08.18 - 16:08:28
Uploader   robbyrs
Votazione (Voti: 0)


Condividi questo bittorrent:


html/blog:


bbcode/forum:




Aggiungi Commento