Kriminálka Anděl | The Handmaids Tale S01E01 WEBRip x264-RMTeam.srt | Michelle Yeoh
 * Dettagli Torrent   globale  | Commenti (0) 


- Fragile A Ghost Story (2005).720p.H264.italian.english.Ac3-5.1.sub.eng-MIRCrew -


Download via torrent:
Categoria bittorrent BDRip
Descrizione
Frágiles - Fragile A Ghost Story (2005).720p.H264.italian.english.Ac3-5.1.sub.eng-MIRCrew



NO FOUND ONLY ORIGINAL RELEASE



My release is always in double track audio italian and Original audio
for select it use VLC or dvd player home
not use wmp

Fragile A Ghost Story - Frágiles (2005)

Quality MIRCrew on HD 720p da  1,7 gb








Titolo originale Frágiles
Paese di produzione Spagna
Anno 2005
Durata 93 min
Genere orrore
Regia Jaume Balagueró
Sceneggiatura Jaume Balagueró, Jordi Galcerán
Casa di produzione Julio Fernández Rodríguez, Joan Ginard, Edwige Fenech
Distribuzione (Italia) PFA Films
Fotografia Xavi Giménez
Montaggio Jaume Martí
Effetti speciali Juan Serrano
Musiche Roque Baños



   Calista Flockhart: Amy Nicholls
   Richard Roxburgh: Robert Marcus
   Elena Anaya: Helen Perez
   Gemma Jones: Dottoressa Folder
   Yasmin Murphy: Maggie
   Colin McFarlane: Roy
   Michael Pennington: Marcus
   Daniel Ortiz: Matt
   Susie Trayling: Susan
   Aloma Romero: Vicky
   Karmeta Cervera: Charlotte Rivers



Isola di Wight, Inghilterra. Il fatiscente ospedale Mercy Falls sta per essere completamente smantellato, ed i suoi pazienti trasferiti in altri istituti. Ma un tremendo incidente ferroviario sull'isola ha reso sovraffollati gli altri ospedali, e gli ultimi degenti rimasti al Mercy Falls, otto bambini, sono costretti ad attendere altri giorni prima di essere trasferiti



At her new job in a rundown children's hospital, a nurse desperately tries to keep her patients safe from a plague of random, mysterious attacks.








[spoiler]
General
Unique ID                                : 188132696128127568130645198097959222876 (0x8D890A0F82452E029D84E89E4165FE5C)
Complete name                            : Fragile A Ghost Story (2005).720p.h264.ita.eng-MIRCrew\Fragile A Ghost Story (2005).720p.h264.ita.eng-MIRCrew.mkv
Format                                   : Matroska
Format version                           : Version 2
File size                                : 1.71 GiB
Duration                                 : 1h 37mn
Overall bit rate                         : 2 509 Kbps
Movie name                               : MIRCrew
Encoded date                             : UTC 2018-07-29T17:26:21Z
Writing application                      : mkvmerge v5.4.0 ('Piper') built on Mar 10 2012 13:34:39
Writing library                          : Lavf55.12.0
DATE_RELEASED                            : 2005
GENRE                                    : Horror

Video
ID                                       : 1
Format                                   : AVC
Format/Info                              : Advanced Video Codec
Format profile                           : [email protected]
Format settings, CABAC                   : Yes
Format settings, ReFrames                : 4 frames
Codec ID                                 : V_MPEG4/ISO/AVC
Duration                                 : 1h 37mn
Bit rate                                 : 1 900 Kbps
Width                                    : 1 280 pixels
Height                                   : 544 pixels
Display aspect ratio                     : 2.35:1
Frame rate mode                          : Variable
Frame rate                               : 25.000 fps
Color space                              : YUV
Chroma subsampling                       : 4:2:0
Bit depth                                : 8 bits
Scan type                                : Progressive
Bits/(Pixel*Frame)                       : 0.109
Stream size                              : 1.24 GiB (73%)
Writing library                          : x264 core 142 r2479 dd79a61
Encoding settings                        : cabac=1 / ref=3 / deblock=1:0:0 / analyse=0x3:0x113 / me=hex / subme=7 / psy=1 / psy_rd=1.00:0.00 / mixed_ref=1 / me_range=16 / chroma_me=1 / trellis=1 / 8x8dct=1 / cqm=0 / deadzone=21,11 / fast_pskip=1 / chroma_qp_offset=-2 / threads=3 / lookahead_threads=1 / sliced_threads=0 / nr=0 / decimate=1 / interlaced=0 / bluray_compat=0 / constrained_intra=0 / bframes=3 / b_pyramid=2 / b_adapt=1 / b_bias=0 / direct=1 / weightb=1 / open_gop=0 / weightp=2 / keyint=250 / keyint_min=25 / scenecut=40 / intra_refresh=0 / rc_lookahead=40 / rc=abr / mbtree=1 / bitrate=1900 / ratetol=1.0 / qcomp=0.60 / qpmin=0 / qpmax=69 / qpstep=4 / vbv_maxrate=62500 / vbv_bufsize=78125 / nal_hrd=none / filler=0 / ip_ratio=1.40 / aq=1:1.00
Language                                 : Italian
Default                                  : Yes
Forced                                   : No
Color primaries                          : BT.709-5, BT.1361, IEC 61966-2-4, SMPTE RP177
Transfer characteristics                 : BT.709-5, BT.1361
Matrix coefficients                      : BT.709-5, BT.1361, IEC 61966-2-4 709, SMPTE RP177

Audio #1
ID                                       : 2
Format                                   : AC-3
Format/Info                              : Audio Coding 3
Mode extension                           : CM (complete main)
Codec ID                                 : A_AC3
Duration                                 : 1h 37mn
Bit rate mode                            : Constant
Bit rate                                 : 448 Kbps
Channel(s)                               : 6 channels
Channel positions                        : Front: L C R, Side: L R, LFE
Sampling rate                            : 48.0 KHz
Bit depth                                : 16 bits
Compression mode                         : Lossy
Delay relative to video                  : -64ms
Stream size                              : 313 MiB (18%)
Language                                 : Italian
Default                                  : No
Forced                                   : No

Audio #2
ID                                       : 3
Format                                   : AC-3
Format/Info                              : Audio Coding 3
Mode extension                           : CM (complete main)
Codec ID                                 : A_AC3
Duration                                 : 1h 37mn
Bit rate mode                            : Constant
Bit rate                                 : 192 Kbps
Channel(s)                               : 2 channels
Channel positions                        : Front: L R
Sampling rate                            : 48.0 KHz
Bit depth                                : 16 bits
Compression mode                         : Lossy
Delay relative to video                  : -5ms
Stream size                              : 134 MiB (8%)
Language                                 : English
Default                                  : No
Forced                                   : No


[/spoiler]



Info: Per scaricare devi usare un client come uTorrent o Transmission
AnnounceURL
udp://tracker.coppersurfer.tk:6969/announce
Hash f524027a8055d27b918e564a82c273afac6a66eb
Peers seeds: 35 , leech: 10
Size 1.71 GB
Completato 573x
Aggiunto 31.07.18 - 22:07:34
Uploader   robbyrs
Votazione (Voti: 1)


Condividi questo bittorrent:


html/blog:


bbcode/forum:




Aggiungi Commento