tv episodes | Kevin Greutert | 2018 Delta Member Handbook - Delta Region Volleyball
 * Dettagli Torrent   globale  | Commenti (0) 


- Bullet Head (2017).720p.H264.italian.english.Ac3-5.1.sub.ita-MIRCrew -


Download via torrent:
Categoria bittorrent BDRip
Descrizione
Bullet Head (2017).720p.H264.italian.english.Ac3-5.1.sub.ita-MIRCrew


by  http://mircrewreleases.forumcommunity.net/


NO FOUND ONLY ORIGINAL RELEASE


My release is always in double track audio italian and Original audio
for select it use VLC or dvd player home
not use wmp

Bullet Head (2017)

Quality MIRCrew on HD 720p da  1,8 gb






GENERE: Thriller, Drammatico
ANNO: 2017
REGIA: Paul Solet
PAESE: Bulgaria, USA
DURATA: 93 Min



Adrien Brody, Antonio Banderas, John Malkovich, Rory Culkin, Alexandra Dinu, Ori Pfeffer



Stacy (Adrien Brody), Gage (Rory Culkin) e Walker (John Malkovich) per nascondersi dalla polizia che li insegue decidono di rifugiarsi in una struttura che ospita occasionalmente incontri clandestini di cani.



Three career criminals find themselves trapped in a warehouse with the law closing in and an even worse threat waiting inside - a nigh unstoppable killer dog.







[spoiler]
General
Unique ID                                : 246716876585962519440092447034220573901 (0xB99BF1298CEA3542B9887814AF8174CD)
Complete name                            : Bullet Head (2017).720p.h264.ita.eng.sub.ita-MIRCrew\Bullet Head (2017).720p.h264.ita.eng.sub.ita-MIRCrew.mkv
Format                                   : Matroska
Format version                           : Version 2
File size                                : 1.79 GiB
Duration                                 : 1h 33mn
Overall bit rate                         : 2 728 Kbps
Movie name                               : MIRCrew
Encoded date                             : UTC 2018-07-23 15:33:52
Writing application                      : mkvmerge v5.4.0 ('Piper') built on Mar 10 2012 13:34:39
Writing library                          : Lavf54.63.100

Video
ID                                       : 1
Format                                   : AVC
Format/Info                              : Advanced Video Codec
Format profile                           : [email protected]
Format settings, CABAC                   : Yes
Format settings, ReFrames                : 2 frames
Codec ID                                 : V_MPEG4/ISO/AVC
Duration                                 : 1h 33mn
Bit rate                                 : 1 777 Kbps
Nominal bit rate                         : 1 900 Kbps
Width                                    : 1 296 pixels
Height                                   : 544 pixels
Display aspect ratio                     : 2.40:1
Frame rate mode                          : Variable
Frame rate                               : 24.000 fps
Color space                              : YUV
Chroma subsampling                       : 4:2:0
Bit depth                                : 8 bits
Scan type                                : Progressive
Bits/(Pixel*Frame)                       : 0.105
Stream size                              : 1.16 GiB (65%)
Writing library                          : x264 core 130 r2273
Encoding settings                        : cabac=1 / ref=2 / deblock=1:0:0 / analyse=0x1:0x131 / me=hex / subme=7 / psy=1 / psy_rd=1.00:0.00 / mixed_ref=0 / me_range=16 / chroma_me=1 / trellis=1 / 8x8dct=0 / cqm=0 / deadzone=21,11 / fast_pskip=1 / chroma_qp_offset=-2 / threads=3 / lookahead_threads=1 / sliced_threads=0 / nr=0 / decimate=1 / interlaced=0 / bluray_compat=0 / constrained_intra=0 / bframes=3 / b_pyramid=0 / b_adapt=1 / b_bias=0 / direct=3 / weightb=1 / open_gop=0 / weightp=2 / keyint=240 / keyint_min=24 / scenecut=40 / intra_refresh=0 / rc_lookahead=40 / rc=abr / mbtree=1 / bitrate=1900 / ratetol=1.0 / qcomp=0.60 / qpmin=10 / qpmax=69 / qpstep=4 / vbv_maxrate=24000 / vbv_bufsize=24000 / nal_hrd=none / ip_ratio=1.40 / aq=1:1.00
Language                                 : Italian
Default                                  : Yes
Forced                                   : No
DURATION                                 : 01:33:39.084000000
NUMBER_OF_FRAMES                         : 134858
NUMBER_OF_BYTES                          : 6904011254
_STATISTICS_WRITING_APP                  : mkvmerge v9.7.1 ('Pandemonium') 64bit
_STATISTICS_WRITING_DATE_UTC             : 2018-07-11 10:59:20
_STATISTICS_TAGS                         : BPS DURATION NUMBER_OF_FRAMES NUMBER_OF_BYTES

Audio #1
ID                                       : 2
Format                                   : AC-3
Format/Info                              : Audio Coding 3
Mode extension                           : CM (complete main)
Codec ID                                 : A_AC3
Duration                                 : 1h 33mn
Bit rate mode                            : Constant
Bit rate                                 : 448 Kbps
Channel(s)                               : 6 channels
Channel positions                        : Front: L C R, Side: L R, LFE
Sampling rate                            : 48.0 KHz
Bit depth                                : 16 bits
Compression mode                         : Lossy
Delay relative to video                  : -42ms
Stream size                              : 301 MiB (16%)
Title                                    : Ita Ac3 5.1
Language                                 : Italian
Default                                  : Yes
Forced                                   : No

Audio #2
ID                                       : 3
Format                                   : AC-3
Format/Info                              : Audio Coding 3
Mode extension                           : CM (complete main)
Codec ID                                 : A_AC3
Duration                                 : 1h 33mn
Bit rate mode                            : Constant
Bit rate                                 : 448 Kbps
Channel(s)                               : 6 channels
Channel positions                        : Front: L C R, Side: L R, LFE
Sampling rate                            : 48.0 KHz
Bit depth                                : 16 bits
Compression mode                         : Lossy
Delay relative to video                  : -42ms
Stream size                              : 301 MiB (16%)
Title                                    : eng Ac3 5.1
Language                                 : English
Default                                  : No
Forced                                   : No

Menu
00:00:00.000                             : 01)00:00:00:000
00:08:10.166                             : 02)00:08:10:166
00:15:57.875                             : 03)00:15:57:875
00:24:24.583                             : 04)00:24:24:583
00:31:45.250                             : 05)00:31:45:250
00:41:12.541                             : 06)00:41:12:541
00:48:17.458                             : 07)00:48:17:458
00:56:55.083                             : 000:56:55:083
01:07:53.416                             : 09)01:07:53:416
01:13:52.875                             : 10)01:13:52:875
01:20:13.125                             : 11)01:20:13:125
01:26:36.375                             : 12)01:26:36:375


[/spoiler]



Info: Per scaricare devi usare un client come uTorrent o Transmission
AnnounceURL
udp://tracker.coppersurfer.tk:6969/announce
Hash bd87c88efc18c954cf1767f9d86394a74e2efa84
Peers seeds: 101 , leech: 28
Size 1.79 GB
Completato 2469x
Aggiunto 30.07.18 - 19:07:38
Uploader   robbyrs
Votazione (Voti: 0)


Condividi questo bittorrent:


html/blog:


bbcode/forum:




Aggiungi Commento