Slugterra | iKON - 'BLING BLING' M/V.mp3 | Adventure Time S07E12 HDTV x264-W4F [eztv]
 * Dettagli Torrent   globale  | Commenti (0) 


- La Fine - How It Ends (2018).720p.H264.italian.english.Ac3-5.1.multisub-MIRCrew -


Download via torrent:
Categoria bittorrent BDRip
Descrizione
How It Ends - La Fine 2018.720p.H264.italian.english.Ac3-5.1.multisub-MIRCrew


by  http://mircrewreleases.forumcommunity.net/


NO FOUND ONLY ORIGINAL RELEASE



My release is always in double track audio italian and Original audio
for select it use VLC or dvd player home
not use wmp

La fine - How It Ends 2018

Quality MIRCrew on HD 720p da  2,0 gb








Titolo originale How It Ends
Lingua originale inglese
Paese di produzione Stati Uniti d'America, Canada
Anno 2018
Genere thriller, catastrofico, drammatico
Regia David M. Rosenthal
Sceneggiatura Brooks McLaren
Produttore Tai Duncan,



   Theo James: Will
   Forest Whitaker: Tom
   Kat Graham: Samantha
   Kerry Bishé: Meg
   Mark O'Brien: Jeremiah
   Nancy Sorel: Paula
   Eric Keenleyside: sceriffo Reynolds
   Grace Dove: Ricki



Durante il viaggio verso ovest, i tre incontrano scene di distruzione e di desolazione: auto e case abbandonate, treni e aerei distrutti, gente in fuga a piedi da città in fiamme, villaggi asserragliati in stato d'assedio che non consentono il passaggio ai non residenti.



A desperate man tries to return home to his pregnant fiancée after a mysterious apocalyptic event turns everything to chaos...








[spoiler]
General
Unique ID                                : 29351744051359590813098932783883686250 (0x1614F0B61D5F5001C4DD67186C5B116A)
Complete name                            : How It Ends 2018.720p.h264.ita.eng.multisub-MIRCrew\How It Ends 2018.720p.h264.ita.eng.multisub-MIRCrew.mkv
Format                                   : Matroska
Format version                           : Version 2
File size                                : 2.08 GiB
Duration                                 : 1h 53mn
Overall bit rate                         : 2 635 Kbps
Movie name                               : MIRCrew
Encoded date                             : UTC 2018-07-26 13:39:02
Writing application                      : Lavf54.63.100
Writing library                          : Lavf54.63.100
COPYRIGHT                                : robbyrs

Video
ID                                       : 1
Format                                   : AVC
Format/Info                              : Advanced Video Codec
Format profile                           : [email protected]
Format settings, CABAC                   : Yes
Format settings, ReFrames                : 2 frames
Codec ID                                 : V_MPEG4/ISO/AVC
Duration                                 : 1h 53mn
Bit rate                                 : 1 900 Kbps
Width                                    : 1 280 pixels
Height                                   : 720 pixels
Display aspect ratio                     : 16:9
Frame rate mode                          : Variable
Frame rate                               : 23.976 fps
Color space                              : YUV
Chroma subsampling                       : 4:2:0
Bit depth                                : 8 bits
Scan type                                : Progressive
Bits/(Pixel*Frame)                       : 0.086
Stream size                              : 1.44 GiB (69%)
Writing library                          : x264 core 130 r2273
Encoding settings                        : cabac=1 / ref=2 / deblock=1:0:0 / analyse=0x1:0x131 / me=hex / subme=7 / psy=1 / psy_rd=1.00:0.00 / mixed_ref=0 / me_range=16 / chroma_me=1 / trellis=1 / 8x8dct=0 / cqm=0 / deadzone=21,11 / fast_pskip=1 / chroma_qp_offset=-2 / threads=3 / lookahead_threads=1 / sliced_threads=0 / nr=0 / decimate=1 / interlaced=0 / bluray_compat=0 / constrained_intra=0 / bframes=3 / b_pyramid=0 / b_adapt=1 / b_bias=0 / direct=3 / weightb=1 / open_gop=0 / weightp=2 / keyint=230 / keyint_min=23 / scenecut=40 / intra_refresh=0 / rc_lookahead=40 / rc=abr / mbtree=1 / bitrate=1900 / ratetol=1.0 / qcomp=0.60 / qpmin=10 / qpmax=69 / qpstep=4 / vbv_maxrate=24000 / vbv_bufsize=24000 / nal_hrd=none / ip_ratio=1.40 / aq=1:1.00
Language                                 : Italian
Default                                  : Yes
Forced                                   : No
_STATISTICS_WRITING_APP                  : mkvmerge v7.6.0 ('Garden of Dreams') 64bit built on Feb  8 2015 15:12:28
_STATISTICS_WRITING_DATE_UTC             : 2018-07-13 15:54:29
_STATISTICS_TAGS                         : BPS DURATION NUMBER_OF_FRAMES NUMBER_OF_BYTES
DURATION                                 : 01:53:13.162000000
NUMBER_OF_FRAMES                         : 162873
NUMBER_OF_BYTES                          : 2666155664

Audio #1
ID                                       : 2
Format                                   : AC-3
Format/Info                              : Audio Coding 3
Mode extension                           : CM (complete main)
Codec ID                                 : A_AC3
Duration                                 : 1h 53mn
Bit rate mode                            : Constant
Bit rate                                 : 384 Kbps
Channel(s)                               : 6 channels
Channel positions                        : Front: L C R, Side: L R, LFE
Sampling rate                            : 48.0 KHz
Bit depth                                : 16 bits
Compression mode                         : Lossy
Delay relative to video                  : 1mn 5s
Stream size                              : 311 MiB (15%)
Title                                    : ITA
Language                                 : Italian
Default                                  : Yes
Forced                                   : Yes
DURATION                                 : 01:53:13.376000000
NUMBER_OF_FRAMES                         : 212293
NUMBER_OF_BYTES                          : 326082048
_STATISTICS_WRITING_APP                  : mkvmerge v7.6.0 ('Garden of Dreams') 64bit built on Feb  8 2015 15:12:28
_STATISTICS_WRITING_DATE_UTC             : 2018-07-13 15:54:29
_STATISTICS_TAGS                         : BPS DURATION NUMBER_OF_FRAMES NUMBER_OF_BYTES

Audio #2
ID                                       : 3
Format                                   : AC-3
Format/Info                              : Audio Coding 3
Mode extension                           : CM (complete main)
Codec ID                                 : A_AC3
Duration                                 : 1h 53mn
Bit rate mode                            : Constant
Bit rate                                 : 384 Kbps
Channel(s)                               : 6 channels
Channel positions                        : Front: L C R, Side: L R, LFE
Sampling rate                            : 48.0 KHz
Bit depth                                : 16 bits
Compression mode                         : Lossy
Delay relative to video                  : 1mn 5s
Stream size                              : 311 MiB (15%)
Title                                    : ENG
Language                                 : English
Default                                  : No
Forced                                   : No
_STATISTICS_WRITING_APP                  : mkvmerge v7.6.0 ('Garden of Dreams') 64bit built on Feb  8 2015 15:12:28
_STATISTICS_WRITING_DATE_UTC             : 2018-07-13 15:54:29
_STATISTICS_TAGS                         : BPS DURATION NUMBER_OF_FRAMES NUMBER_OF_BYTES
DURATION                                 : 01:52:45.408000000
NUMBER_OF_FRAMES                         : 211419
NUMBER_OF_BYTES                          : 378862848


[/spoiler]



Info: Per scaricare devi usare un client come uTorrent o Transmission
AnnounceURL
udp://tracker.coppersurfer.tk:6969/announce
Hash 421724a12c09ab9ecb0cfba6322d50ecdb2ac01e
Peers seeds: 149 , leech: 35
Size 2.08 GB
Completato 4329x
Aggiunto 27.07.18 - 18:07:20
Uploader   robbyrs
Votazione (Voti: 1)


Condividi questo bittorrent:


html/blog:


bbcode/forum:




Aggiungi Commento