Tokyo Hot SE192 Amateur | Battle Of The Sexes (2017) | El Sr. Holmes
 * Dettagli Torrent   globale  | Commenti (0) 


- The Lodgers - Non infrangere le regole (2017).720p.H264.italian.english.Ac3-5.1.sub.ita.eng.spa-MIRC -


Download via torrent:
Categoria bittorrent BDRip
Descrizione
The Lodgers - Non infrangere le regole (2017).720p.H264.italian.english.Ac3-5.1.sub.ita.eng.spa-MIRCrew


by http://mircrewreleases.forumcommunity.net/


NO FOUND ONLY ORIGINAL RELEASE



My release is always in double track audio italian and Original audio
for select it use VLC or dvd player home
not use wmp

The Lodgers - Non infrangere le regole (2017)

Quality MIRCrew on HD 720p da  1,7 gb








GENERE: Drammatico, Horror, Sentimentale, Thriller
ANNO: 2017
REGIA: Brian O'Malley
PAESE: Irlanda
DURATA: 92 Min



Charlotte Vega, David Bradley, Moe Dunford, Eugene Simon, Bill Milner, Deirdre O'Kane



I gemelli Rachel ed Edward dovranno trovare il modo di spezzare la maledizione che li confina a vivere da reclusi nella decadente casa di famiglia seguendo regole molto ferree tramandate da generazioni.



1920, rural Ireland. Anglo Irish twins Rachel and Edward share a strange existence in their crumbling family estate. Each night, the property becomes the domain of a sinister presence...............







[spoiler]
General
Unique ID                                : 262241819965907160610043008955676267808 (0xC549EFF7C303E360F83CD6DF88869520)
Complete name                            : The Lodgers - Non infrangere le regole (2017).720p,h264.ita.eng.sub.ita.eng.spa-MIRCrew\The Lodgers - Non infrangere le regole (2017).720p,h264.ita.eng.sub.ita.eng.spa-MIRCrew.mkv
Format                                   : Matroska
Format version                           : Version 2
File size                                : 1.75 GiB
Duration                                 : 1h 34mn
Overall bit rate                         : 2 668 Kbps
Movie name                               : MIRCrew
Encoded date                             : UTC 2018-07-19 16:01:49
Writing application                      : Lavf54.63.100
Writing library                          : Lavf54.63.100
COPYRIGHT                                : robbyrs

Video
ID                                       : 1
Format                                   : AVC
Format/Info                              : Advanced Video Codec
Format profile                           : [email protected]
Format settings, CABAC                   : Yes
Format settings, ReFrames                : 2 frames
Codec ID                                 : V_MPEG4/ISO/AVC
Duration                                 : 1h 34mn
Bit rate                                 : 1 800 Kbps
Width                                    : 1 280 pixels
Height                                   : 544 pixels
Display aspect ratio                     : 2.40:1
Original display aspect ratio            : 2.40:1
Frame rate mode                          : Variable
Frame rate                               : 24.000 fps
Color space                              : YUV
Chroma subsampling                       : 4:2:0
Bit depth                                : 8 bits
Scan type                                : Progressive
Bits/(Pixel*Frame)                       : 0.108
Stream size                              : 1.13 GiB (64%)
Writing library                          : x264 core 130 r2273
Encoding settings                        : cabac=1 / ref=2 / deblock=1:0:0 / analyse=0x1:0x131 / me=hex / subme=7 / psy=1 / psy_rd=1.00:0.00 / mixed_ref=0 / me_range=16 / chroma_me=1 / trellis=1 / 8x8dct=0 / cqm=0 / deadzone=21,11 / fast_pskip=1 / chroma_qp_offset=-2 / threads=3 / lookahead_threads=1 / sliced_threads=0 / nr=0 / decimate=1 / interlaced=0 / bluray_compat=0 / constrained_intra=0 / bframes=3 / b_pyramid=0 / b_adapt=1 / b_bias=0 / direct=3 / weightb=1 / open_gop=0 / weightp=2 / keyint=240 / keyint_min=24 / scenecut=40 / intra_refresh=0 / rc_lookahead=40 / rc=abr / mbtree=1 / bitrate=1800 / ratetol=1.0 / qcomp=0.60 / qpmin=10 / qpmax=69 / qpstep=4 / vbv_maxrate=24000 / vbv_bufsize=24000 / nal_hrd=none / ip_ratio=1.40 / aq=1:1.00
Language                                 : Italian
Default                                  : Yes
Forced                                   : No
DURATION                                 : 01:34:04.667000000
NUMBER_OF_FRAMES                         : 135472
NUMBER_OF_BYTES                          : 5332832277
_STATISTICS_WRITING_APP                  : mkvmerge v9.7.1 ('Pandemonium') 64bit
_STATISTICS_WRITING_DATE_UTC             : 2018-06-23 12:00:25
_STATISTICS_TAGS                         : BPS DURATION NUMBER_OF_FRAMES NUMBER_OF_BYTES

Audio #1
ID                                       : 2
Format                                   : AC-3
Format/Info                              : Audio Coding 3
Mode extension                           : CM (complete main)
Codec ID                                 : A_AC3
Duration                                 : 1h 34mn
Bit rate mode                            : Constant
Bit rate                                 : 448 Kbps
Channel(s)                               : 6 channels
Channel positions                        : Front: L C R, Side: L R, LFE
Sampling rate                            : 48.0 KHz
Bit depth                                : 16 bits
Compression mode                         : Lossy
Delay relative to video                  : 1mn 5s
Stream size                              : 301 MiB (17%)
Language                                 : Italian
Default                                  : No
Forced                                   : No
DURATION                                 : 01:34:05.152000000
NUMBER_OF_FRAMES                         : 176411
NUMBER_OF_BYTES                          : 451612160
_STATISTICS_WRITING_APP                  : mkvmerge v9.7.1 ('Pandemonium') 64bit
_STATISTICS_WRITING_DATE_UTC             : 2018-06-23 12:00:25
_STATISTICS_TAGS                         : BPS DURATION NUMBER_OF_FRAMES NUMBER_OF_BYTES

Audio #2
ID                                       : 3
Format                                   : AC-3
Format/Info                              : Audio Coding 3
Mode extension                           : CM (complete main)
Codec ID                                 : A_AC3
Duration                                 : 1h 34mn
Bit rate mode                            : Constant
Bit rate                                 : 448 Kbps
Channel(s)                               : 6 channels
Channel positions                        : Front: L C R, Side: L R, LFE
Sampling rate                            : 48.0 KHz
Bit depth                                : 16 bits
Compression mode                         : Lossy
Delay relative to video                  : 1mn 5s
Stream size                              : 301 MiB (17%)
Language                                 : English
Default                                  : No
Forced                                   : No
DURATION                                 : 01:34:05.174000000
NUMBER_OF_FRAMES                         : 529235
NUMBER_OF_BYTES                          : 1064820888
_STATISTICS_WRITING_APP                  : mkvmerge v9.7.1 ('Pandemonium') 64bit
_STATISTICS_WRITING_DATE_UTC             : 2018-06-23 12:00:25
_STATISTICS_TAGS                         : BPS DURATION NUMBER_OF_FRAMES NUMBER_OF_BYTES

Menu
00:00:00.000                             : 01)00:00:00:000
00:00:36.125                             : 02)00:00:36:125
00:08:46.041                             : 03)00:08:46:041
00:15:27.666                             : 04)00:15:27:666
00:20:55.791                             : 05)00:20:55:791
00:28:44.791                             : 06)00:28:44:791
00:41:43.958                             : 07)00:41:43:958
00:47:27.041                             : 000:47:27:041
00:52:50.291                             : 09)00:52:50:291
01:00:17.666                             : 10)01:00:17:666
01:10:35.666                             : 11)01:10:35:666
01:18:04.500                             : 12)01:18:04:500
01:29:17.291                             : 13)01:29:17:291


[/spoiler]



Info: Per scaricare devi usare un client come uTorrent o Transmission
AnnounceURL
udp://tracker.coppersurfer.tk:6969/announce
Hash bb39f20721449229c7f1370bf77fdab2ee700766
Peers seeds: 48 , leech: 10
Size 1.75 GB
Completato 1348x
Aggiunto 27.07.18 - 17:07:33
Uploader   robbyrs
Votazione (Voti: 0)


Condividi questo bittorrent:


html/blog:


bbcode/forum:




Aggiungi Commento