Cheong Yul Bak | Аудиокниги на венгерском языке | Shape USA - Summer 2017
 * Dettagli Torrent   globale  | Commenti (0) 


- Guardians of The tomb (2018).720p.H264.italian.english.Ac3-5.1.sub.eng spa-MIRCrew -


Download via torrent:
Categoria bittorrent BDRip
Descrizione
Guardians of The tomb (201.720p.H264.italian.english.Ac3-5.1.sub.eng spa-MIRCrew


by http://mircrewreleases.forumcommunity.net/


NO FOUND ONLY ORIGINAL RELEASE



My release is always in double track audio italian and Original audio
for select it use VLC or dvd player home
not use wmp

Guardians of The tomb (201

Quality MIRCrew on HD 720p da  1,7 gb








Regia di Kimble Rendall.
Titolo originale: Guardians of the Tomb.
Genere Azione
Paese: Cina, Australia, Russia, Tailandia,
Anno: 2018
Durata 90 minuti.



Kellan Lutz, Kelsey Grammer, Bingbing Li, Stef Dawson, Yasmin Kassim, Tim Draxl



Alcuni scienziati stanno per fare la più grande scoperta del mondo. Ma non hanno ancora fatto i conti con uno sciame di ragni che custodiscono la tomba labirinto di un imperatore cinese.



An innocent discovery of a well-preserved mummified Chinese Emperor from 200 B.C. unearths a two-thousand-year-old nightmare, a secret that should have remained buried...








[spoiler]
General
Unique ID                                : 177995788414848763540524732487161181486 (0x85E8BDEC6435B5059C52E5BDD929752E)
Complete name                            : Guardians of The tomb (201.720p.ita.eng.sub.eng.spa-MIRCrew\Guardians of The tomb (201.720p.ita.eng.sub.eng.spa-MIRCrew.mkv
Format                                   : Matroska
Format version                           : Version 2
File size                                : 1.70 GiB
Duration                                 : 1h 30mn
Overall bit rate                         : 2 682 Kbps
Movie name                               : MIRCrew releases
Encoded date                             : UTC 2018-02-23 09:53:29
Writing application                      : mkvmerge v5.4.0 ('Piper') built on Mar 10 2012 13:34:39
Writing library                          : Lavf54.63.100
COPYRIGHT                                : robbyrs

Video
ID                                       : 1
Format                                   : AVC
Format/Info                              : Advanced Video Codec
Format profile                           : [email protected]
Format settings, CABAC                   : Yes
Format settings, ReFrames                : 2 frames
Codec ID                                 : V_MPEG4/ISO/AVC
Duration                                 : 1h 30mn
Bit rate                                 : 1 797 Kbps
Nominal bit rate                         : 1 900 Kbps
Width                                    : 1 280 pixels
Height                                   : 528 pixels
Display aspect ratio                     : 2.40:1
Original display aspect ratio            : 2.40:1
Frame rate mode                          : Variable
Frame rate                               : 23.976 fps
Color space                              : YUV
Chroma subsampling                       : 4:2:0
Bit depth                                : 8 bits
Scan type                                : Progressive
Bits/(Pixel*Frame)                       : 0.111
Stream size                              : 1.14 GiB (67%)
Writing library                          : x264 core 130 r2273
Encoding settings                        : cabac=1 / ref=2 / deblock=1:0:0 / analyse=0x1:0x131 / me=hex / subme=7 / psy=1 / psy_rd=1.00:0.00 / mixed_ref=0 / me_range=16 / chroma_me=1 / trellis=1 / 8x8dct=0 / cqm=0 / deadzone=21,11 / fast_pskip=1 / chroma_qp_offset=-2 / threads=3 / lookahead_threads=1 / sliced_threads=0 / nr=0 / decimate=1 / interlaced=0 / bluray_compat=0 / constrained_intra=0 / bframes=3 / b_pyramid=0 / b_adapt=1 / b_bias=0 / direct=3 / weightb=1 / open_gop=0 / weightp=2 / keyint=230 / keyint_min=23 / scenecut=40 / intra_refresh=0 / rc_lookahead=40 / rc=abr / mbtree=1 / bitrate=1900 / ratetol=1.0 / qcomp=0.60 / qpmin=10 / qpmax=69 / qpstep=4 / vbv_maxrate=24000 / vbv_bufsize=24000 / nal_hrd=none / ip_ratio=1.40 / aq=1:1.00
Language                                 : English
Default                                  : Yes
Forced                                   : No
DURATION                                 : 01:30:29.799000000
NUMBER_OF_FRAMES                         : 130185
NUMBER_OF_BYTES                          : 3076828683
_STATISTICS_WRITING_APP                  : mkvmerge v20.0.0 ('I Am The Sun') 64-bit
_STATISTICS_WRITING_DATE_UTC             : 2018-02-23 09:53:29
_STATISTICS_TAGS                         : BPS DURATION NUMBER_OF_FRAMES NUMBER_OF_BYTES

Audio #1
ID                                       : 2
Format                                   : AC-3
Format/Info                              : Audio Coding 3
Mode extension                           : CM (complete main)
Codec ID                                 : A_AC3
Duration                                 : 1h 30mn
Bit rate mode                            : Constant
Bit rate                                 : 448 Kbps
Channel(s)                               : 6 channels
Channel positions                        : Front: L C R, Side: L R, LFE
Sampling rate                            : 48.0 KHz
Bit depth                                : 16 bits
Compression mode                         : Lossy
Delay relative to video                  : -42ms
Stream size                              : 290 MiB (17%)
Title                                    : Ita Ac3 5.1
Language                                 : English
Default                                  : No
Forced                                   : No
DURATION                                 : 01:30:29.856000000
NUMBER_OF_FRAMES                         : 169683
NUMBER_OF_BYTES                          : 260633088
_STATISTICS_WRITING_APP                  : mkvmerge v20.0.0 ('I Am The Sun') 64-bit
_STATISTICS_WRITING_DATE_UTC             : 2018-02-23 09:53:29
_STATISTICS_TAGS                         : BPS DURATION NUMBER_OF_FRAMES NUMBER_OF_BYTES

Audio #2
ID                                       : 3
Format                                   : AC-3
Format/Info                              : Audio Coding 3
Mode extension                           : CM (complete main)
Codec ID                                 : A_AC3
Duration                                 : 1h 30mn
Bit rate mode                            : Constant
Bit rate                                 : 384 Kbps
Channel(s)                               : 6 channels
Channel positions                        : Front: L C R, Side: L R, LFE
Sampling rate                            : 48.0 KHz
Bit depth                                : 16 bits
Compression mode                         : Lossy
Delay relative to video                  : -5ms
Stream size                              : 249 MiB (14%)
Title                                    : Eng Ac3 5.1
Language                                 : English
Default                                  : No
Forced                                   : No

Menu
00:00:00.000                             : :Chapter 1
00:09:45.585                             : :Chapter 2
00:19:48.187                             : :Chapter 3
00:30:26.825                             : :Chapter 4
00:41:26.484                             : :Chapter 5
00:51:28.085                             : :Chapter 6
01:02:04.721                             : :Chapter 7
01:10:16.212                             : :Chapter 8
01:23:21.997                             : :Chapter 9


[/spoiler]



Info: Per scaricare devi usare un client come uTorrent o Transmission
AnnounceURL
udp://tracker.coppersurfer.tk:6969/announce
Hash 6953e0c269e741df4ed590ecb223e44df0e795c1
Peers seeds: 120 , leech: 30
Size 1.70 GB
Completato 3773x
Aggiunto 27.07.18 - 15:07:56
Uploader   robbyrs
Votazione (Voti: 0)


Condividi questo bittorrent:


html/blog:


bbcode/forum:




Aggiungi Commento