Top-Rated Webcam Shows of the Day | Strange Angel Temporada 1 Capítulo 3 | Findet Dorie (2016)
 * Dettagli Torrent   globale  | Commenti (0) 


- Sister Act (1992).720p.H264.italian.english.Ac3-5.1.sub.ita.eng-MIRCrew -


Download via torrent:
Categoria bittorrent BDRip
Descrizione
Sister Act (1992).720p.H264.italian.english.Ac3-5.1.sub.ita.eng-MIRCrew



NO FOUND ONLY ORIGINAL RELEASE



My release is always in double track audio italian and Original audio
for select it use VLC or dvd player home
not use wmp

Sister Act

(1992)

Quality MIRCrew on HD 720p da  1,9 gb









Titolo originale Sister Act
Paese di produzione USA
Anno 1992
Durata 97 min
Genere commedia, musicale
Regia Emile Ardolino
Sceneggiatura Joseph Howard
Fotografia Adam Greenberg
Montaggio Colleen Halsey, Richard Halsey
Musiche Marc Shaiman



   Whoopi Goldberg: Deloris Van Cartier/Suor Maria Claretta
   Maggie Smith: Madre Superiora
   Kathy Najimy: suor Maria Patrizia
   Wendy Makkena: suor Maria Roberta
   Mary Wickes: suor Maria Lazzara
   Harvey Keitel: Vince LaRocca
   Richard Portnow: Willy
   Robert Miranda: Joey
   Bill Nunn: tenente Eddie Souther
   Joseph Maher: monsignor O'Hara
   Rose Parenti: suor Alma
   Ellen Albertini Dow: suor Maria Felicita
   Ruth Kobart: suor Maria Ignazia
   Charlotte Crossley: Tina
   Jenifer Lewis: Michelle
   Joseph G. Medalis: Henry Parker
   Eugene Greytak: Papa Giovanni Paolo II



Deloris Van Cartier è l'esuberante solista di un trio musicale femminile in stile anni '60, The Ronelles (parodia delle Ronettes), che si esibisce al Moonlight Lounge a Reno, in Nevada. Il proprietario del casinò è l'amante di Deloris, Vince LaRocca, con il quale litiga puntualmente perché l'uomo, che è sposato, rifiuta di divorziare, nonostante continui a dirle di amarla davvero e di voler stare con lei; ciò che Deloris non sa è che Vince è anche un pericoloso boss criminale, coinvolto in ogni sorta di attività illegale.



Deloris Wilson, a black woman who has chosen the stage name Deloris Van Cartier, is a Reno lounge singer, she the lead in a girl trio in which she also chooses and arranges the music and choreographs the shows. She is a wisecracking, showy woman who has always loved music. She, however, only has her current job being hired by her married lover, Vince LaRocca, to sing in his casino's lounge.








[spoiler]
General
Unique ID                                : 255036019878977032975722311534514211246 (0xBFDE269817525D7AA99987FBBABF09AE)
Complete name                            : Sister Act (1992).720p.ita.eng.sub.ita.eng-MIRCrew\Sister Act (1992)720p.ita.eng.sub.ita.eng-MIRCrew.mkv
Format                                   : Matroska
Format version                           : Version 2
File size                                : 1.95 GiB
Duration                                 : 1h 40mn
Overall bit rate                         : 2 785 Kbps
Movie name                               : MIRCrew
Encoded date                             : UTC 2014-12-24 14:08:23
Writing application                      : mkvmerge v5.4.0 ('Piper') built on Mar 10 2012 13:34:39
Writing library                          : Lavf54.63.100
COPYRIGHT                                : robbyrs

Video
ID                                       : 1
Format                                   : AVC
Format/Info                              : Advanced Video Codec
Format profile                           : [email protected]
Format settings, CABAC                   : Yes
Format settings, ReFrames                : 2 frames
Codec ID                                 : V_MPEG4/ISO/AVC
Duration                                 : 1h 40mn
Bit rate                                 : 1 900 Kbps
Width                                    : 1 280 pixels
Height                                   : 688 pixels
Display aspect ratio                     : 16:9
Frame rate mode                          : Variable
Frame rate                               : 23.976 fps
Color space                              : YUV
Chroma subsampling                       : 4:2:0
Bit depth                                : 8 bits
Scan type                                : Progressive
Bits/(Pixel*Frame)                       : 0.090
Stream size                              : 1.28 GiB (66%)
Writing library                          : x264 core 130 r2273
Encoding settings                        : cabac=1 / ref=2 / deblock=1:0:0 / analyse=0x1:0x131 / me=hex / subme=7 / psy=1 / psy_rd=1.00:0.00 / mixed_ref=0 / me_range=16 / chroma_me=1 / trellis=1 / 8x8dct=0 / cqm=0 / deadzone=21,11 / fast_pskip=1 / chroma_qp_offset=-2 / threads=3 / lookahead_threads=1 / sliced_threads=0 / nr=0 / decimate=1 / interlaced=0 / bluray_compat=0 / constrained_intra=0 / bframes=3 / b_pyramid=0 / b_adapt=1 / b_bias=0 / direct=3 / weightb=1 / open_gop=0 / weightp=2 / keyint=230 / keyint_min=23 / scenecut=40 / intra_refresh=0 / rc_lookahead=40 / rc=abr / mbtree=1 / bitrate=1900 / ratetol=1.0 / qcomp=0.60 / qpmin=10 / qpmax=69 / qpstep=4 / vbv_maxrate=24000 / vbv_bufsize=24000 / nal_hrd=none / ip_ratio=1.40 / aq=1:1.00
Language                                 : Italian
Default                                  : Yes
Forced                                   : No

Audio #1
ID                                       : 2
Format                                   : AC-3
Format/Info                              : Audio Coding 3
Mode extension                           : CM (complete main)
Codec ID                                 : A_AC3
Duration                                 : 1h 40mn
Bit rate mode                            : Constant
Bit rate                                 : 448 Kbps
Channel(s)                               : 6 channels
Channel positions                        : Front: L C R, Side: L R, LFE
Sampling rate                            : 48.0 KHz
Bit depth                                : 16 bits
Compression mode                         : Lossy
Delay relative to video                  : -5ms
Stream size                              : 321 MiB (16%)
Title                                    : ita Ac3 5.1
Language                                 : Italian
Default                                  : Yes
Forced                                   : No

Audio #2
ID                                       : 3
Format                                   : AC-3
Format/Info                              : Audio Coding 3
Mode extension                           : CM (complete main)
Codec ID                                 : A_AC3
Duration                                 : 1h 40mn
Bit rate mode                            : Constant
Bit rate                                 : 448 Kbps
Channel(s)                               : 6 channels
Channel positions                        : Front: L C R, Side: L R, LFE
Sampling rate                            : 48.0 KHz
Bit depth                                : 16 bits
Compression mode                         : Lossy
Delay relative to video                  : -5ms
Stream size                              : 321 MiB (16%)
Title                                    : eng Ac3 5.1
Language                                 : English
Default                                  : No
Forced                                   : No

Menu
00:00:00.000                             : :Opening Titles
00:04:33.523                             : :An Honest, Decent Couple
00:06:40.942                             : :His Wife's Coat
00:09:18.141                             : :Reluctant Witness
00:14:01.090                             : :We Can Help You
00:16:10.178                             : :St. Katherine's Convent
00:21:21.947                             : :Welcome, Sister Mary Clarence
00:26:51.068                             : :He's Got Deloris
00:27:59.845                             : :God Has Brought You Here, Take the Hint
00:30:39.296                             : :A Small Congregation
00:32:40.584                             : atabase Hoods
00:33:09.237                             : :Chores
00:37:01.386                             : :Call to Lt. Souther
00:37:52.479                             : :A Gift From Mary Robert
00:40:34.098                             : :A Nun's Bar
00:45:13.753                             : :New Choir Director
00:53:53.230                             : :"Hail, Holy Queen"
00:57:53.053                             : :Reaching Out
01:04:07.927                             : :"My God"
01:08:30.023                             : :Glorious News
01:11:24.780                             : :That Makes Two of Us
01:14:08.527                             : :Wicked Indulgence
01:15:30.568                             : :A Leak in the Department
01:16:49.772                             : :Kidnapped
01:20:29.199                             : :Nuns to the Rescue
01:32:57.697                             : :Concert for the Pope
01:36:36.791                             : :End Credits



[/spoiler]



Info: Per scaricare devi usare un client come uTorrent o Transmission
AnnounceURL
udp://tracker.coppersurfer.tk:6969/announce
Hash 0c340050feb4294d7bbcf462688a3fc77c8e59cb
Peers seeds: 13 , leech: 5
Size 1.97 GB
Completato 652x
Aggiunto 20.07.18 - 11:07:26
Uploader   robbyrs
Votazione (Voti: 0)


Condividi questo bittorrent:


html/blog:


bbcode/forum:




Aggiungi Commento