American Horror Story - Saison 4 | Grey’s Anatomy | IMDb: 6.2 HD Paint It Red
 * Dettagli Torrent   globale  | Commenti (0) 


- Peter Rabbit (2018).720p.H264.italian.english.Ac3-5.1.sub.ita.eng-MIRCrew -


Download via torrent:
Categoria bittorrent BDRip
Descrizione
Peter Rabbit 2018.720p.H264.italian.english.Ac3-5.1.sub.ita.eng-MIRCrew


by http://mircrewreleases.forumcommunity.net/


NO FOUND ONLY ORIGINAL RELEASE



My release is always in double track audio italian and Original audio
for select it use VLC or dvd player home
not use wmp

Peter Rabbit

2018

Quality MIRCrew on HD 720p da  1,8 gb






Scheda:

GENERE: Animazione, Avventura, Commedia, Family, Fantasy
ANNO: 2018
REGIA: Will Gluck
ATTORI: Nicola Savino, James Corden, Domhnall Gleeson, Rose Byrne, Fayssal Bazzi, Sam Neill, Sia, Margot Robbie, Daisy Ridley, Elizabeth Debicki, Colin Moody, Marianne Jean-Baptiste
PAESE: Australia, USA, Gran Bretagna
DURATA: 95 Min

Trama:

L'amato personaggio delle fiabe nato dalla penna - e dai pennelli - di Beatrix Potter è il protagonista di questa grintosa e irriverente commedia di ambientazione contemporanea, diretta da Will Gluck e realizzata con tecnica mista live action e CGI

Storyline:

Feature adaptation of Beatrix Potter's classic tale of a rebellious rabbit trying to sneak into a farmer's vegetable garden.  






Dati file:

[spoiler]
General
Unique ID                                : 215436307534516567799147337239412463532 (0xA21386094433DDAC99E10FCF02D9D7AC)
Complete name                            : Peter Rabbit 2018.720p.h264.ita.eng.sub.ita.eng-MIRCrew\Peter Rabbit 2018.720p.h264.ita.eng.sub.ita.eng-MIRCrew.mkv
Format                                   : Matroska
Format version                           : Version 2
File size                                : 1.83 GiB
Duration                                 : 1h 34mn
Overall bit rate                         : 2 764 Kbps
Movie name                               : MIRCrew
Encoded date                             : UTC 2018-07-18 17:21:48
Writing application                      : mkvmerge v5.4.0 ('Piper') built on Mar 10 2012 13:34:39
Writing library                          : Lavf54.63.100
COPYRIGHT                                : robbyrs

Video
ID                                       : 1
Format                                   : AVC
Format/Info                              : Advanced Video Codec
Format profile                           : [email protected]
Format settings, CABAC                   : Yes
Format settings, ReFrames                : 2 frames
Codec ID                                 : V_MPEG4/ISO/AVC
Duration                                 : 1h 34mn
Bit rate                                 : 1 900 Kbps
Width                                    : 1 264 pixels
Height                                   : 528 pixels
Display aspect ratio                     : 2.40:1
Original display aspect ratio            : 2.40:1
Frame rate mode                          : Variable
Frame rate                               : 23.976 fps
Color space                              : YUV
Chroma subsampling                       : 4:2:0
Bit depth                                : 8 bits
Scan type                                : Progressive
Bits/(Pixel*Frame)                       : 0.119
Stream size                              : 1.20 GiB (66%)
Writing library                          : x264 core 130 r2273
Encoding settings                        : cabac=1 / ref=2 / deblock=1:0:0 / analyse=0x1:0x131 / me=hex / subme=7 / psy=1 / psy_rd=1.00:0.00 / mixed_ref=0 / me_range=16 / chroma_me=1 / trellis=1 / 8x8dct=0 / cqm=0 / deadzone=21,11 / fast_pskip=1 / chroma_qp_offset=-2 / threads=3 / lookahead_threads=1 / sliced_threads=0 / nr=0 / decimate=1 / interlaced=0 / bluray_compat=0 / constrained_intra=0 / bframes=3 / b_pyramid=0 / b_adapt=1 / b_bias=0 / direct=3 / weightb=1 / open_gop=0 / weightp=2 / keyint=230 / keyint_min=23 / scenecut=40 / intra_refresh=0 / rc_lookahead=40 / rc=abr / mbtree=1 / bitrate=1900 / ratetol=1.0 / qcomp=0.60 / qpmin=10 / qpmax=69 / qpstep=4 / vbv_maxrate=24000 / vbv_bufsize=24000 / nal_hrd=none / ip_ratio=1.40 / aq=1:1.00
Language                                 : Italian
Default                                  : Yes
Forced                                   : No
DURATION                                 : 01:34:42.552000000
NUMBER_OF_FRAMES                         : 136245
NUMBER_OF_BYTES                          : 7253189441
_STATISTICS_WRITING_APP                  : mkvmerge v9.7.1 ('Pandemonium') 64bit
_STATISTICS_WRITING_DATE_UTC             : 2018-07-13 20:29:30
_STATISTICS_TAGS                         : BPS DURATION NUMBER_OF_FRAMES NUMBER_OF_BYTES

Audio #1
ID                                       : 2
Format                                   : AC-3
Format/Info                              : Audio Coding 3
Mode extension                           : CM (complete main)
Codec ID                                 : A_AC3
Duration                                 : 1h 34mn
Bit rate mode                            : Constant
Bit rate                                 : 448 Kbps
Channel(s)                               : 6 channels
Channel positions                        : Front: L C R, Side: L R, LFE
Sampling rate                            : 48.0 KHz
Bit depth                                : 16 bits
Compression mode                         : Lossy
Delay relative to video                  : -5ms
Stream size                              : 303 MiB (16%)
Title                                    : Ita AC3 5.1
Language                                 : Italian
Default                                  : No
Forced                                   : No
DURATION                                 : 01:34:42.656000000
NUMBER_OF_FRAMES                         : 177583
NUMBER_OF_BYTES                          : 454612480
_STATISTICS_WRITING_APP                  : mkvmerge v9.7.1 ('Pandemonium') 64bit
_STATISTICS_WRITING_DATE_UTC             : 2018-07-13 20:29:30
_STATISTICS_TAGS                         : BPS DURATION NUMBER_OF_FRAMES NUMBER_OF_BYTES

Audio #2
ID                                       : 3
Format                                   : AC-3
Format/Info                              : Audio Coding 3
Mode extension                           : CM (complete main)
Codec ID                                 : A_AC3
Duration                                 : 1h 34mn
Bit rate mode                            : Constant
Bit rate                                 : 448 Kbps
Channel(s)                               : 6 channels
Channel positions                        : Front: L C R, Side: L R, LFE
Sampling rate                            : 48.0 KHz
Bit depth                                : 16 bits
Compression mode                         : Lossy
Delay relative to video                  : -5ms
Stream size                              : 303 MiB (16%)
Title                                    : Eng Ac3 5.1
Language                                 : English
Default                                  : No
Forced                                   : No
DURATION                                 : 01:34:42.678000000
NUMBER_OF_FRAMES                         : 532751
NUMBER_OF_BYTES                          : 1071895740
_STATISTICS_WRITING_APP                  : mkvmerge v9.7.1 ('Pandemonium') 64bit
_STATISTICS_WRITING_DATE_UTC             : 2018-07-13 20:29:30
_STATISTICS_TAGS                         : BPS DURATION NUMBER_OF_FRAMES NUMBER_OF_BYTES

Menu
00:00:00.000                             : 01)00:00:00:000
00:04:04.786                             : 02)00:04:04:786
00:08:26.297                             : 03)00:08:26:297
00:15:11.702                             : 04)00:15:11:702
00:21:00.634                             : 05)00:21:00:634
00:25:43.583                             : 06)00:25:43:583
00:30:50.265                             : 07)00:30:50:265
00:38:00.861                             : 000:38:00:861
00:44:37.341                             : 09)00:44:37:341
00:50:07.671                             : 10)00:50:07:671
00:56:21.294                             : 11)00:56:21:294
01:01:07.580                             : 12)01:01:07:580
01:07:02.560                             : 13)01:07:02:560
01:10:30.809                             : 14)01:10:30:809
01:14:35.137                             : 15)01:14:35:137
01:21:51.990                             : 16)01:21:51:990


[/spoiler]



Info: Per scaricare devi usare un client come uTorrent o Transmission
AnnounceURL
udp://tracker.coppersurfer.tk:6969/announce
Hash bfe011ec9fa8c68235899674b226ae9e68f8187d
Peers seeds: 95 , leech: 15
Size 1.83 GB
Completato 5092x
Aggiunto 19.07.18 - 17:07:33
Uploader   robbyrs
Votazione (Voti: 0)


Condividi questo bittorrent:


html/blog:


bbcode/forum:




Aggiungi Commento