1x143 Simona | Grimsby - Agent trop spécial FRENCH WEBRIP Torrent | Full TV Series fun
 * Dettagli Torrent   globale  | Commenti (2) 


- Terre selvagge (2017).720p.H264.italian.english.Ac3-5.1.sub.ita-MIRCrew -


Download via torrent:
Categoria bittorrent BDRip
Descrizione
Pilgrimage - Terre selvagge (2017).720p.H264.italian.english.Ac3-5.1.sub.ita-MIRCrew


NO FOUND ONLY ORIGINAL RELEASE



My release is always in double track audio italian and Original audio
for select it use VLC or dvd player home
not use wmp

Terre selvagge

Pilgrimage


(2017)

Quality MIRCrew on HD 720p da  1,8 gb







Scheda:



Regia di Brendan Muldowney.
Un film con Jon Bernthal, Richard Armitage, Tom Holland, Stanley Weber, John Lynch, Hugh O'Conor.
Genere Avventura
Irlanda, 2017
Durata 1,35 H


Trama:

Nell'Irlanda del XIII secolo, un gruppo di monaci viaggia attraverso la campagna devastata dalla guerra. La loro missione è quella di portare a Roma la reliquia più sacra della loro terra. Lungo il viaggio altre forze cercheranno di avere il sopravvento, portando alla luce il vero significato e i pericoli connessi alla reliquia stessa.

Storyline:

In 13th century Ireland, a group of monks must escort a sacred relic across an Irish landscape fraught with peril.






Dati file:

[spoiler]
General
Unique ID                                : 232264452715903466568766466156478034423 (0xAEBC81A6B8DAC3089A83D86B115B71F7)
Complete name                            : Terre selvagge - Pilgrimage (2017).720p.h264.ita.eng.sub.ita-MIRCrew\Terre selvagge - Pilgrimage (2017).720p.h264.ita.eng.sub.ita-MIRCrew.mkv
Format                                   : Matroska
Format version                           : Version 2
File size                                : 1.84 GiB
Duration                                 : 1h 35mn
Overall bit rate                         : 2 751 Kbps
Movie name                               : MIRCrew
Encoded date                             : UTC 2018-07-17 16:47:20
Writing application                      : mkvmerge v5.4.0 ('Piper') built on Mar 10 2012 13:34:39
Writing library                          : Lavf54.63.100
COPYRIGHT                                : robbyrs

Video
ID                                       : 1
Format                                   : AVC
Format/Info                              : Advanced Video Codec
Format profile                           : [email protected]
Format settings, CABAC                   : Yes
Format settings, ReFrames                : 2 frames
Codec ID                                 : V_MPEG4/ISO/AVC
Duration                                 : 1h 35mn
Bit rate                                 : 1 800 Kbps
Nominal bit rate                         : 1 900 Kbps
Width                                    : 1 280 pixels
Height                                   : 528 pixels
Display aspect ratio                     : 2.40:1
Frame rate mode                          : Variable
Frame rate                               : 24.000 fps
Color space                              : YUV
Chroma subsampling                       : 4:2:0
Bit depth                                : 8 bits
Scan type                                : Progressive
Bits/(Pixel*Frame)                       : 0.111
Stream size                              : 1.20 GiB (65%)
Writing library                          : x264 core 130 r2273
Encoding settings                        : cabac=1 / ref=2 / deblock=1:0:0 / analyse=0x1:0x131 / me=hex / subme=7 / psy=1 / psy_rd=1.00:0.00 / mixed_ref=0 / me_range=16 / chroma_me=1 / trellis=1 / 8x8dct=0 / cqm=0 / deadzone=21,11 / fast_pskip=1 / chroma_qp_offset=-2 / threads=3 / lookahead_threads=1 / sliced_threads=0 / nr=0 / decimate=1 / interlaced=0 / bluray_compat=0 / constrained_intra=0 / bframes=3 / b_pyramid=0 / b_adapt=1 / b_bias=0 / direct=3 / weightb=1 / open_gop=0 / weightp=2 / keyint=240 / keyint_min=24 / scenecut=40 / intra_refresh=0 / rc_lookahead=40 / rc=abr / mbtree=1 / bitrate=1900 / ratetol=1.0 / qcomp=0.60 / qpmin=10 / qpmax=69 / qpstep=4 / vbv_maxrate=24000 / vbv_bufsize=24000 / nal_hrd=none / ip_ratio=1.40 / aq=1:1.00
Language                                 : Italian
Default                                  : Yes
Forced                                   : No
DURATION                                 : 01:35:50.542000000
NUMBER_OF_FRAMES                         : 138013
NUMBER_OF_BYTES                          : 7339837225
_STATISTICS_WRITING_APP                  : mkvmerge v9.7.1 ('Pandemonium') 64bit
_STATISTICS_WRITING_DATE_UTC             : 2018-06-27 19:04:52
_STATISTICS_TAGS                         : BPS DURATION NUMBER_OF_FRAMES NUMBER_OF_BYTES

Audio #1
ID                                       : 2
Format                                   : AC-3
Format/Info                              : Audio Coding 3
Mode extension                           : CM (complete main)
Codec ID                                 : A_AC3
Duration                                 : 1h 35mn
Bit rate mode                            : Constant
Bit rate                                 : 448 Kbps
Channel(s)                               : 6 channels
Channel positions                        : Front: L C R, Side: L R, LFE
Sampling rate                            : 48.0 KHz
Bit depth                                : 16 bits
Compression mode                         : Lossy
Delay relative to video                  : -5ms
Stream size                              : 307 MiB (16%)
Title                                    : Ita Ac3 5.1
Language                                 : Italian
Default                                  : No
Forced                                   : No
DURATION                                 : 01:35:51.040000000
NUMBER_OF_FRAMES                         : 179720
NUMBER_OF_BYTES                          : 460083200
_STATISTICS_WRITING_APP                  : mkvmerge v9.7.1 ('Pandemonium') 64bit
_STATISTICS_WRITING_DATE_UTC             : 2018-06-27 19:04:52
_STATISTICS_TAGS                         : BPS DURATION NUMBER_OF_FRAMES NUMBER_OF_BYTES

Audio #2
ID                                       : 3
Format                                   : AC-3
Format/Info                              : Audio Coding 3
Mode extension                           : CM (complete main)
Codec ID                                 : A_AC3
Duration                                 : 1h 35mn
Bit rate mode                            : Constant
Bit rate                                 : 448 Kbps
Channel(s)                               : 6 channels
Channel positions                        : Front: L C R, Side: L R, LFE
Sampling rate                            : 48.0 KHz
Bit depth                                : 16 bits
Compression mode                         : Lossy
Delay relative to video                  : -5ms
Stream size                              : 307 MiB (16%)
Title                                    : Eng Ac3 5.1
Language                                 : English
Default                                  : No
Forced                                   : No
DURATION                                 : 01:35:51.008000000
NUMBER_OF_FRAMES                         : 539157
NUMBER_OF_BYTES                          : 1084783884
_STATISTICS_WRITING_APP                  : mkvmerge v9.7.1 ('Pandemonium') 64bit
_STATISTICS_WRITING_DATE_UTC             : 2018-06-27 19:04:52
_STATISTICS_TAGS                         : BPS DURATION NUMBER_OF_FRAMES NUMBER_OF_BYTES

Menu
00:00:00.000                             : :00:00:00.000
00:01:02.000                             : :00:01:02.000
00:10:51.917                             : :00:10:51.917
00:17:16.958                             : :00:17:16.958
00:26:55.375                             : :00:26:55.375
00:31:33.875                             : :00:31:33.875
00:38:54.625                             : :00:38:54.625
00:47:35.458                             : :00:47:35.458
00:55:08.542                             : :00:55:08.542
01:06:26.792                             : :01:06:26.792
01:12:32.207                             : :01:12:32.208
01:18:29.375                             : :01:18:29.375
01:29:32.792                             : :01:29:32.792


[/spoiler]



Info: Per scaricare devi usare un client come uTorrent o Transmission
AnnounceURL
udp://tracker.coppersurfer.tk:6969/announce
Hash e227feb30fd8fa61f0622d345963208dee5a84e8
Peers seeds: 75 , leech: 13
Size 1.84 GB
Completato 3224x
Aggiunto 19.07.18 - 14:07:06
Uploader   robbyrs
Votazione (Voti: 0)


Condividi questo bittorrent:


html/blog:


bbcode/forum:




Aggiungi Commento
Ultimi commenti
  
grazie
20/07 13.49
 jackal98jackal98   
Grazie
20/07 13.06
Tutti commenti (2)