Grand Theft Auto V (Rgh-Jtag)(14.1 Gb)(Español) | Дом Рэйвен / Raven's Home [02x01-06 из 13] (2018) HDTVRip 720p | ColdFilm | Link Video
 * Dettagli Torrent   globale  | Commenti (0) 


- Tonya (2017).720p.H264.italian.english.Ac3-5.1.sub.ita.Nuita.eng-MIRCrew -


Download via torrent:
Categoria bittorrent BDRip
Descrizione
I, Tonya - Tonya (2017).720p.H264.italian.english.Ac3-5.1.sub.ita.eng-MIRCrew



NO FOUND ONLY ORIGINAL RELEASE



My release is always in double track audio italian and Original audio
for select it use VLC or dvd player home
not use wmp

Tonya

I, Tonya


(2017)

Quality MIRCrew on HD 720p da  2,3 gb







Scheda:

Titolo originale I, Tonya
Lingua originale inglese
Paese di produzione Stati Uniti d'America
Anno 2017
Durata 121 min
Rapporto 2.35 : 1
Genere drammatico, biografico, sportivo, commedia
Regia Craig Gillespie
Sceneggiatura Steven Rogers
Produttore Bryan Unkeless,

Cast:

   Margot Robbie: Tonya Harding
   Sebastian Stan: Jeff Gillooly
   Allison Janney: LaVona Harding
   Julianne Nicholson: Diane Rawlinson
   Paul Walter Hauser: Shawn Eckhardt
   Bobby Cannavale: Martin Maddox
   Caitlin Carver: Nancy Kerrigan
   Bojana Novakovic: Dody Teachman
   Mckenna Grace: Tonya Harding bambina

Trama:

Nata a Portland, nell'Oregon, a soli tre anni Tonya Harding viene instradata da sua madre LaVona a una carriera nel pattinaggio artistico: LaVona è una donna truce e violenta, che non le dimostra il minimo affetto né apprezzamento per il suo notevole talento. Nel corso di un'infanzia e un'adolescenza difficili, Tonya diventa un'eccellente pattinatrice, ma essendo priva di grazia e gareggiando con discutibili costumi fatti in casa non riesce a sfondare e poi.................

Storyline:

From the proverbial wrong side of the tracks in Portland, Oregon, former competitive figure skater Tonya Harding was never fully accepted in the figure skating community for not inherently being the image of grace, breeding and privilege that the community wanted to portray, despite she being naturally gifted in the sport athletically.






Dati file:

[spoiler]
General
Unique ID                                : 192770861471830653776801706497260701763 (0x910651447E93B8E5A661F5882298C843)
Complete name                            : C:\Users\robby\Desktop\Tonya (2017).720p.h264.ita.eng.sub.ita.NUita.eng-MIRCrew\Tonya (2017).720p.h264.ita.eng.sub.ita.NUita-MIRCrew.mkv
Format                                   : Matroska
Format version                           : Version 2
File size                                : 2.33 GiB
Duration                                 : 2h 0mn
Overall bit rate                         : 2 770 Kbps
Movie name                               : MIRCrew
Encoded date                             : UTC 2018-07-15 09:26:30
Writing application                      : mkvmerge v5.4.0 ('Piper') built on Mar 10 2012 13:34:39
Writing library                          : Lavf54.63.100

Video
ID                                       : 1
Format                                   : AVC
Format/Info                              : Advanced Video Codec
Format profile                           : [email protected]
Format settings, CABAC                   : Yes
Format settings, ReFrames                : 2 frames
Codec ID                                 : V_MPEG4/ISO/AVC
Duration                                 : 2h 0mn
Bit rate                                 : 1 900 Kbps
Width                                    : 1 264 pixels
Height                                   : 528 pixels
Display aspect ratio                     : 2.40:1
Frame rate mode                          : Variable
Frame rate                               : 24.000 fps
Color space                              : YUV
Chroma subsampling                       : 4:2:0
Bit depth                                : 8 bits
Scan type                                : Progressive
Bits/(Pixel*Frame)                       : 0.119
Stream size                              : 1.53 GiB (66%)
Writing library                          : x264 core 130 r2273
Encoding settings                        : cabac=1 / ref=2 / deblock=1:0:0 / analyse=0x1:0x131 / me=hex / subme=7 / psy=1 / psy_rd=1.00:0.00 / mixed_ref=0 / me_range=16 / chroma_me=1 / trellis=1 / 8x8dct=0 / cqm=0 / deadzone=21,11 / fast_pskip=1 / chroma_qp_offset=-2 / threads=3 / lookahead_threads=1 / sliced_threads=0 / nr=0 / decimate=1 / interlaced=0 / bluray_compat=0 / constrained_intra=0 / bframes=3 / b_pyramid=0 / b_adapt=1 / b_bias=0 / direct=3 / weightb=1 / open_gop=0 / weightp=2 / keyint=240 / keyint_min=24 / scenecut=40 / intra_refresh=0 / rc_lookahead=40 / rc=abr / mbtree=1 / bitrate=1900 / ratetol=1.0 / qcomp=0.60 / qpmin=10 / qpmax=69 / qpstep=4 / vbv_maxrate=24000 / vbv_bufsize=24000 / nal_hrd=none / ip_ratio=1.40 / aq=1:1.00
Language                                 : Italian
Default                                  : Yes
Forced                                   : No
DURATION                                 : 02:00:13.167000000
NUMBER_OF_FRAMES                         : 173116
NUMBER_OF_BYTES                          : 8568956921
_STATISTICS_WRITING_APP                  : mkvmerge v9.7.1 ('Pandemonium') 64bit
_STATISTICS_WRITING_DATE_UTC             : 2018-07-07 12:39:33
_STATISTICS_TAGS                         : BPS DURATION NUMBER_OF_FRAMES NUMBER_OF_BYTES

Audio #1
ID                                       : 2
Format                                   : AC-3
Format/Info                              : Audio Coding 3
Mode extension                           : CM (complete main)
Codec ID                                 : A_AC3
Duration                                 : 2h 0mn
Bit rate mode                            : Constant
Bit rate                                 : 448 Kbps
Channel(s)                               : 6 channels
Channel positions                        : Front: L C R, Side: L R, LFE
Sampling rate                            : 48.0 KHz
Bit depth                                : 16 bits
Compression mode                         : Lossy
Delay relative to video                  : -5ms
Stream size                              : 385 MiB (16%)
Title                                    : Ita Ac3 5.1
Language                                 : Italian
Default                                  : No
Forced                                   : No
DURATION                                 : 02:00:13.216000000
NUMBER_OF_FRAMES                         : 225413
NUMBER_OF_BYTES                          : 577057280
_STATISTICS_WRITING_APP                  : mkvmerge v9.7.1 ('Pandemonium') 64bit
_STATISTICS_WRITING_DATE_UTC             : 2018-07-07 12:39:33
_STATISTICS_TAGS                         : BPS DURATION NUMBER_OF_FRAMES NUMBER_OF_BYTES

Audio #2
ID                                       : 3
Format                                   : AC-3
Format/Info                              : Audio Coding 3
Mode extension                           : CM (complete main)
Codec ID                                 : A_AC3
Duration                                 : 2h 0mn
Bit rate mode                            : Constant
Bit rate                                 : 448 Kbps
Channel(s)                               : 6 channels
Channel positions                        : Front: L C R, Side: L R, LFE
Sampling rate                            : 48.0 KHz
Bit depth                                : 16 bits
Compression mode                         : Lossy
Delay relative to video                  : -5ms
Stream size                              : 385 MiB (16%)
Title                                    : Eng Ac3 5.1
Language                                 : English
Default                                  : No
Forced                                   : No
DURATION                                 : 02:00:13.280000000
NUMBER_OF_FRAMES                         : 676245
NUMBER_OF_BYTES                          : 1360605060
_STATISTICS_WRITING_APP                  : mkvmerge v9.7.1 ('Pandemonium') 64bit
_STATISTICS_WRITING_DATE_UTC             : 2018-07-07 12:39:33
_STATISTICS_TAGS                         : BPS DURATION NUMBER_OF_FRAMES NUMBER_OF_BYTES

Menu
00:00:00.000                             : 01)00:00:00:000
00:10:04.250                             : 02)00:10:04:250
00:20:14.750                             : 03)00:20:14:750
00:29:56.708                             : 04)00:29:56:708
00:40:57.583                             : 05)00:40:57:583
00:50:08.375                             : 06)00:50:08:375
00:59:38.625                             : 07)00:59:38:625
01:11:53.500                             : 001:11:53:500
01:20:36.666                             : 09)01:20:36:666
01:29:36.708                             : 10)01:29:36:708
01:39:52.875                             : 11)01:39:52:875
01:49:30.458                             : 12)01:49:30:458
02:00:12.750                             : 13)02:00:12:750



[/spoiler]



Info: Per scaricare devi usare un client come uTorrent o Transmission
AnnounceURL
udp://tracker.coppersurfer.tk:6969/announce
Hash 813d90bc545f4e79308c85e7e598d17be9ab97be
Peers seeds: 64 , leech: 16
Size 2.33 GB
Completato 2185x
Aggiunto 18.07.18 - 18:07:55
Uploader   robbyrs
Votazione (Voti: 2)


Condividi questo bittorrent:


html/blog:


bbcode/forum:




Aggiungi Commento