Shelly Stoyanova | 運命の大命令 | Painkiller Hell And Damnation
 * Dettagli Torrent   globale  | Commenti (0) 


- Rampage - Furia animale (2018).720p.H264.italian.english.Ac3-5.1.sub.ita-MIRCrew -


Download via torrent:
Categoria bittorrent BDRip
Descrizione
Rampage - Furia animale 2018.720p.H264.italian.english.Ac3-5.1.sub.ita-MIRCrew



NO FOUND ONLY ORIGINAL RELEASE

My release is always in double track audio italian and Original audio
for select it use VLC or dvd player home
not use wmp

Rampage - Furia animale

2018

Quality MIRCrew on HD 720p da  2,0 gb







Scheda:

GENERE: Azione, Avventura
ANNO: 2018
REGIA: Brad Peyton
ATTORI: Dwayne Johnson, Naomie Harris, Malin Akerman, Jake Lacy, Joe Manganiello, Jeffrey Dean Morgan, Will Yun Lee, Marley Shelton, Jack Quaid, Breanne Hill, Matt Gerald, P.J. Byrne, Jason Liles, Destiny Lopez, Emalie Noel, Laura Distin, Gary Weeks, David Dunston
PAESE: USA
DURATA: 107 Min

Trama:

il primatologo Davis Okoye (Dwayne Johnson). Uomo schivo, Davis condivide un legame indissolubile con George, un gorilla silverback straordinariamente intelligente di cui si occupa dalla nascita. Un rischioso esperimento genetico e dai risultati catastrofici trasforma la gentile scimmia in un’enorme creatura furiosa

Storyline:

When three different animals become infected with a dangerous pathogen, a primatologist and a geneticist team up to stop them from destroying Chicago.  






Dati file:

[spoiler]
General
Unique ID                                : 178847263033646785353265589379889805876 (0x868CBADD02246918B0243BF7ABF6BA34)
Complete name                            : Rampage - Furia animale 2018.720p.H264.ita.eng.Ac3-5.1.sub.ita-MIRCrew.mkv
Format                                   : Matroska
Format version                           : Version 2
File size                                : 2.23 GiB
Duration                                 : 1h 47mn
Overall bit rate                         : 2 490 Kbps
Movie name                               : MIRCrew
Encoded date                             : UTC 2018-07-15 18:10:00
Writing application                      : mkvmerge v5.4.0 ('Piper') built on Mar 10 2012 13:34:39
Writing library                          : Lavf54.63.100
COPYRIGHT                                : robbyrs

Video
ID                                       : 1
Format                                   : AVC
Format/Info                              : Advanced Video Codec
Format profile                           : [email protected]
Format settings, CABAC                   : Yes
Format settings, ReFrames                : 2 frames
Codec ID                                 : V_MPEG4/ISO/AVC
Duration                                 : 1h 47mn
Bit rate                                 : 1 900 Kbps
Width                                    : 1 280 pixels
Height                                   : 528 pixels
Display aspect ratio                     : 2.40:1
Frame rate mode                          : Variable
Frame rate                               : 23.976 fps
Color space                              : YUV
Chroma subsampling                       : 4:2:0
Bit depth                                : 8 bits
Scan type                                : Progressive
Bits/(Pixel*Frame)                       : 0.117
Stream size                              : 1.37 GiB (74%)
Writing library                          : x264 core 130 r2273
Encoding settings                        : cabac=1 / ref=2 / deblock=1:0:0 / analyse=0x1:0x131 / me=hex / subme=7 / psy=1 / psy_rd=1.00:0.00 / mixed_ref=0 / me_range=16 / chroma_me=1 / trellis=1 / 8x8dct=0 / cqm=0 / deadzone=21,11 / fast_pskip=1 / chroma_qp_offset=-2 / threads=3 / lookahead_threads=1 / sliced_threads=0 / nr=0 / decimate=1 / interlaced=0 / bluray_compat=0 / constrained_intra=0 / bframes=3 / b_pyramid=0 / b_adapt=1 / b_bias=0 / direct=3 / weightb=1 / open_gop=0 / weightp=2 / keyint=230 / keyint_min=23 / scenecut=40 / intra_refresh=0 / rc_lookahead=40 / rc=abr / mbtree=1 / bitrate=1900 / ratetol=1.0 / qcomp=0.60 / qpmin=10 / qpmax=69 / qpstep=4 / vbv_maxrate=24000 / vbv_bufsize=24000 / nal_hrd=none / ip_ratio=1.40 / aq=1:1.00
Language                                 : Italian
Default                                  : Yes
Forced                                   : No
DURATION                                 : 01:47:15.137000000
NUMBER_OF_FRAMES                         : 154289
NUMBER_OF_BYTES                          : 7908816342
_STATISTICS_WRITING_APP                  : mkvmerge v9.7.1 ('Pandemonium') 64bit
_STATISTICS_WRITING_DATE_UTC             : 2018-07-12 13:15:23
_STATISTICS_TAGS                         : BPS DURATION NUMBER_OF_FRAMES NUMBER_OF_BYTES

Audio #1
ID                                       : 2
Format                                   : AC-3
Format/Info                              : Audio Coding 3
Mode extension                           : CM (complete main)
Codec ID                                 : A_AC3
Duration                                 : 1h 47mn
Bit rate mode                            : Constant
Bit rate                                 : 448 Kbps
Channel(s)                               : 6 channels
Channel positions                        : Front: L C R, Side: L R, LFE
Sampling rate                            : 48.0 KHz
Bit depth                                : 16 bits
Compression mode                         : Lossy
Delay relative to video                  : -5ms
Stream size                              : 344 MiB (18%)
Title                                    : Ita. AC3 448 Kbps
Language                                 : Italian
Default                                  : Yes
Forced                                   : No


Audio #2
ID                                       : 2
Format                                   : AC-3
Format/Info                              : Audio Coding 3
Mode extension                           : CM (complete main)
Codec ID                                 : A_AC3
Duration                                 : 1h 47mn
Bit rate mode                            : Constant
Bit rate                                 : 448 Kbps
Channel(s)                               : 6 channels
Channel positions                        : Front: L C R, Side: L R, LFE
Sampling rate                            : 48.0 KHz
Bit depth                                : 16 bits
Compression mode                         : Lossy
Delay relative to video                  : -5ms
Stream size                              : 344 MiB (18%)
Title                                    : Ita. AC3 448 Kbps
Language                                 : English
Default                                  : NO

Menu
00:00:00.000                             : 01)00:00:00:000
00:12:58.527                             : 02)00:12:58:527
00:19:56.278                             : 03)00:19:56:278
00:29:53.291                             : 04)00:29:53:291
00:40:35.391                             : 05)00:40:35:391
00:49:10.906                             : 06)00:49:10:906
01:02:38.171                             : 07)01:02:38:171
01:10:37.650                             : 001:10:37:650
01:20:10.472                             : 09)01:20:10:472
01:29:23.608                             : 10)01:29:23:608
01:39:43.185                             : 11)01:39:43:185
01:47:15.846                             : 12)01:47:15:846




[/spoiler]



Info: Per scaricare devi usare un client come uTorrent o Transmission
AnnounceURL
udp://tracker.coppersurfer.tk:6969/announce
Hash fb3ec9623cb04641e00c5b1e49f49ef59999b025
Peers seeds: 200 , leech: 25
Size 2.08 GB
Completato 10082x
Aggiunto 17.07.18 - 19:07:45
Uploader   robbyrs
Votazione (Voti: 1)


Condividi questo bittorrent:


html/blog:


bbcode/forum:




Aggiungi Commento