Fear the Walking Dead | Rise of Venice Gold Edition | Rishta.com TV Series [2010] S01 _ Netflix 480p _ Web_dl [All Episode –
 * Dettagli Torrent   globale  | Commenti (1) 


- The Bride (2017).720p.H264.italian.Ac3-5.1.sub.ita.eng-MIRCrew -


Download via torrent:
Categoria bittorrent BDRip
Descrizione
The Bride (2017).720p.H264.italian.Ac3-5.1.sub.ita.eng-MIRCrew


NO FOUND ONLY ORIGINAL RELEASE



My release is always in double track audio italian and Original audio
for select it use VLC or dvd player home
not use wmp

ENGLISH SUBTITLE INSIDE

The Bride

(2017)

Quality MIRCrew on HD 720p da  1,6 gb







Scheda:

Regista: Svyatoslav Podgayevskiy
Sceneggiatura: Svyatoslav Podgayevskiy
Musica composta da: Jesper Hansen

Cast:

Viktoriya Agalakova
as Nastya
Vyacheslav Chepurchenko
as Ivan
Aleksandra Rebenok
as Liza
Igor Khripunov
as photographer
Anastasiya Akatova
as Nastya's neigbor
Viktor Solovyov
as Father of Ivan and Liz

Trama:

La pellicola si apre su una pratica ottocentesca diffusa quanto macabra: venivano fotografati i cadaveri per ricordarli e perché i loro spiriti rimanesse a vegliare sui congiunti; essi però erano catturati dall’obiettivo della macchina fotografica con le palpebre chiuse e...................

Storyline:

The unusual practice of photographing dead relatives during mid-1800s rural Russia will link a Philology student with her husband's abysmal family history...





Dati file:

[spoiler]
General
Unique ID                                : 84006381988033922010884260805232323850 (0x3F330A68A17987C7B31E42FB27D46D0A)
Complete name                            : The Bride (2017).720p.H264.ita.sub.ita.eng-MIRCrew\The Bride (2017).720p.H264.ita.sub.ita.eng-MIRCrew.mkv
Format                                   : Matroska
Format version                           : Version 2
File size                                : 1.68 GiB
Duration                                 : 1h 35mn
Overall bit rate                         : 2 526 Kbps
Movie name                               : MIRCrew
Encoded date                             : UTC 2018-07-16 09:12:06
Writing application                      : Lavf54.63.100
Writing library                          : Lavf54.63.100
COPYRIGHT                                : robbyrs

Video
ID                                       : 1
Format                                   : AVC
Format/Info                              : Advanced Video Codec
Format profile                           : [email protected]
Format settings, CABAC                   : Yes
Format settings, ReFrames                : 2 frames
Codec ID                                 : V_MPEG4/ISO/AVC
Duration                                 : 1h 35mn
Bit rate                                 : 1 900 Kbps
Width                                    : 1 264 pixels
Height                                   : 528 pixels
Display aspect ratio                     : 2.40:1
Frame rate mode                          : Variable
Frame rate                               : 24.000 fps
Color space                              : YUV
Chroma subsampling                       : 4:2:0
Bit depth                                : 8 bits
Scan type                                : Progressive
Bits/(Pixel*Frame)                       : 0.119
Stream size                              : 1.22 GiB (73%)
Writing library                          : x264 core 130 r2273
Encoding settings                        : cabac=1 / ref=2 / deblock=1:0:0 / analyse=0x1:0x131 / me=hex / subme=7 / psy=1 / psy_rd=1.00:0.00 / mixed_ref=0 / me_range=16 / chroma_me=1 / trellis=1 / 8x8dct=0 / cqm=0 / deadzone=21,11 / fast_pskip=1 / chroma_qp_offset=-2 / threads=3 / lookahead_threads=1 / sliced_threads=0 / nr=0 / decimate=1 / interlaced=0 / bluray_compat=0 / constrained_intra=0 / bframes=3 / b_pyramid=0 / b_adapt=1 / b_bias=0 / direct=3 / weightb=1 / open_gop=0 / weightp=2 / keyint=240 / keyint_min=24 / scenecut=40 / intra_refresh=0 / rc_lookahead=40 / rc=abr / mbtree=1 / bitrate=1900 / ratetol=1.0 / qcomp=0.60 / qpmin=10 / qpmax=69 / qpstep=4 / vbv_maxrate=24000 / vbv_bufsize=24000 / nal_hrd=none / ip_ratio=1.40 / aq=1:1.00
Language                                 : Italian
Default                                  : Yes
Forced                                   : No
DURATION                                 : 01:35:29.167000000
NUMBER_OF_FRAMES                         : 137500
NUMBER_OF_BYTES                          : 7022232711
_STATISTICS_WRITING_APP                  : mkvmerge v9.7.1 ('Pandemonium') 64bit
_STATISTICS_WRITING_DATE_UTC             : 2018-07-11 11:09:12
_STATISTICS_TAGS                         : BPS DURATION NUMBER_OF_FRAMES NUMBER_OF_BYTES

Audio
ID                                       : 2
Format                                   : AC-3
Format/Info                              : Audio Coding 3
Mode extension                           : CM (complete main)
Codec ID                                 : A_AC3
Duration                                 : 1h 35mn
Bit rate mode                            : Constant
Bit rate                                 : 640 Kbps
Channel(s)                               : 6 channels
Channel positions                        : Front: L C R, Side: L R, LFE
Sampling rate                            : 48.0 KHz
Bit depth                                : 16 bits
Compression mode                         : Lossy
Delay relative to video                  : 1mn 5s
Stream size                              : 437 MiB (25%)
Language                                 : Italian
Default                                  : No
Forced                                   : No
DURATION                                 : 01:35:29.344000000
NUMBER_OF_FRAMES                         : 179042
NUMBER_OF_BYTES                          : 458347520
_STATISTICS_WRITING_APP                  : mkvmerge v9.7.1 ('Pandemonium') 64bit
_STATISTICS_WRITING_DATE_UTC             : 2018-07-11 11:09:12
_STATISTICS_TAGS                         : BPS DURATION NUMBER_OF_FRAMES NUMBER_OF_BYTES

Menu
00:00:00.000                             : 01)00:00:00:000
00:12:45.791                             : 02)00:12:45:791
00:27:43.333                             : 03)00:27:43:333
00:40:42.000                             : 04)00:40:42:000
00:50:30.583                             : 05)00:50:30:583
01:04:37.375                             : 06)01:04:37:375
01:19:13.416                             : 07)01:19:13:416
01:32:57.958                             : 001:32:57:958


[/spoiler]



Info: Per scaricare devi usare un client come uTorrent o Transmission
AnnounceURL
udp://tracker.coppersurfer.tk:6969/announce
Hash ff0b2dcd84b26ec782d38d0648bf8a8906304934
Peers seeds: 69 , leech: 15
Size 1.68 GB
Completato 1648x
Aggiunto 17.07.18 - 18:07:23
Uploader   robbyrs
Votazione (Voti: 0)


Condividi questo bittorrent:


html/blog:


bbcode/forum:




Aggiungi Commento
Ultimi commenti
  
grazie
18/07 09.47
Tutti commenti (1)