Supernoobs – Superkräfte aus Versehen | Fine Homebuilding Magazine – Issue 188, June-July 2007 | How to Train Your Dragon: The Hidden World (2019)
 * Dettagli Torrent   globale  | Commenti (0) 


- L ultimo attacco (1991).720p.H264.italian.english.Ac3.sub.eng-MIRCrew -


Download via torrent:
Categoria bittorrent BDRip
Descrizione
Flight of the Intruder - L ultimo attacco (1991).720p.H264.italian.english.Ac3.sub.eng-MIRCrew



NO FOUND ONLY ORIGINAL RELEASE



My release is always in double track audio italian and Original audio
for select it use VLC or dvd player home
not use wmp

L'ultimo attacco

Flight of the Intruder


(1991)

Quality MIRCrew on HD 720p da  1,8 gb







Scheda:

GENERE: Guerra
ANNO: 1991
REGIA: John Milius
ATTORI: Danny Glover, Willem Dafoe, Rosanna Arquette, Tom Sizemore, Brad Johnson, J. Kenneth Campbell, Jared Chandler, Dann Florek, Douglas Roberts, Christopher Rich
PAESE: USA
DURATA: 110 Min

Trama:

Durante la guerra del Vietnam, una squadra di piloti rischia la corte marziale per aver attaccato un bersaglio non autorizzato, in contrasto con la decisione del Governo americano di limitare gli obiettivi nei bombardamenti.

Storyline:

During the air war over Vietnam, a U.S. Navy A-6 Intruder bomber pilot schemes with a hardened veteran to make an unauthorized air strike on Hanoi...





Dati file:

[spoiler]
General
Unique ID                                : 124958095483848804138512221788172144260 (0x5E020DC516DDC66174A4D070D49F4E84)
Complete name                            : L'ultimo attacco - Flight of the Intruder (1991).720p.h264.ita.eng.sub.eng-MIRCrew\L'ultimo attacco - Flight of the Intruder (1991).720p.h264.ita.eng.sub.eng-MIRCrew.mkv
Format                                   : Matroska
Format version                           : Version 2
File size                                : 1.83 GiB
Duration                                 : 1h 54mn
Overall bit rate                         : 2 287 Kbps
Movie name                               : MIRCrew
Encoded date                             : UTC 2018-06-19 21:57:24
Writing application                      : Lavf54.63.100
Writing library                          : Lavf54.63.100

Video
ID                                       : 1
Format                                   : AVC
Format/Info                              : Advanced Video Codec
Format profile                           : [email protected]
Format settings, CABAC                   : Yes
Format settings, ReFrames                : 2 frames
Codec ID                                 : V_MPEG4/ISO/AVC
Duration                                 : 1h 54mn
Bit rate                                 : 1 900 Kbps
Width                                    : 1 280 pixels
Height                                   : 544 pixels
Display aspect ratio                     : 2.35:1
Frame rate mode                          : Variable
Frame rate                               : 23.976 fps
Color space                              : YUV
Chroma subsampling                       : 4:2:0
Bit depth                                : 8 bits
Scan type                                : Progressive
Bits/(Pixel*Frame)                       : 0.114
Stream size                              : 1.49 GiB (81%)
Writing library                          : x264 core 130 r2273
Encoding settings                        : cabac=1 / ref=2 / deblock=1:0:0 / analyse=0x1:0x131 / me=hex / subme=7 / psy=1 / psy_rd=1.00:0.00 / mixed_ref=0 / me_range=16 / chroma_me=1 / trellis=1 / 8x8dct=0 / cqm=0 / deadzone=21,11 / fast_pskip=1 / chroma_qp_offset=-2 / threads=3 / lookahead_threads=1 / sliced_threads=0 / nr=0 / decimate=1 / interlaced=0 / bluray_compat=0 / constrained_intra=0 / bframes=3 / b_pyramid=0 / b_adapt=1 / b_bias=0 / direct=3 / weightb=1 / open_gop=0 / weightp=2 / keyint=230 / keyint_min=23 / scenecut=40 / intra_refresh=0 / rc_lookahead=40 / rc=abr / mbtree=1 / bitrate=1900 / ratetol=1.0 / qcomp=0.60 / qpmin=10 / qpmax=69 / qpstep=4 / vbv_maxrate=24000 / vbv_bufsize=24000 / nal_hrd=none / ip_ratio=1.40 / aq=1:1.00
Language                                 : Italian
Default                                  : Yes
Forced                                   : No
DURATION                                 : 01:54:45.337000000
NUMBER_OF_FRAMES                         : 165083
NUMBER_OF_BYTES                          : 5844325461
_STATISTICS_WRITING_APP                  : mkvmerge v17.0.0 ('Be Ur Friend') 64-bit
_STATISTICS_WRITING_DATE_UTC             : 2018-06-19 21:57:24
_STATISTICS_TAGS                         : BPS DURATION NUMBER_OF_FRAMES NUMBER_OF_BYTES

Audio #1
ID                                       : 2
Format                                   : AC-3
Format/Info                              : Audio Coding 3
Mode extension                           : CM (complete main)
Codec ID                                 : A_AC3
Duration                                 : 1h 54mn
Bit rate mode                            : Constant
Bit rate                                 : 192 Kbps
Channel(s)                               : 2 channels
Channel positions                        : Front: L R
Sampling rate                            : 48.0 KHz
Bit depth                                : 16 bits
Compression mode                         : Lossy
Delay relative to video                  : 1mn 5s
Stream size                              : 158 MiB (8%)
Language                                 : Italian
Default                                  : No
Forced                                   : No
DURATION                                 : 01:54:46.016000000
NUMBER_OF_FRAMES                         : 215188
NUMBER_OF_BYTES                          : 220352512
_STATISTICS_WRITING_APP                  : mkvmerge v17.0.0 ('Be Ur Friend') 64-bit
_STATISTICS_WRITING_DATE_UTC             : 2018-06-19 21:57:24
_STATISTICS_TAGS                         : BPS DURATION NUMBER_OF_FRAMES NUMBER_OF_BYTES

Audio #2
ID                                       : 3
Format                                   : AC-3
Format/Info                              : Audio Coding 3
Mode extension                           : CM (complete main)
Codec ID                                 : A_AC3
Duration                                 : 1h 54mn
Bit rate mode                            : Constant
Bit rate                                 : 192 Kbps
Channel(s)                               : 2 channels
Channel positions                        : Front: L R
Sampling rate                            : 48.0 KHz
Bit depth                                : 16 bits
Compression mode                         : Lossy
Delay relative to video                  : 1mn 5s
Stream size                              : 158 MiB (8%)
Language                                 : English
Default                                  : No
Forced                                   : No
DURATION                                 : 01:54:46.016000000
NUMBER_OF_FRAMES                         : 215188
NUMBER_OF_BYTES                          : 550881280
_STATISTICS_WRITING_APP                  : mkvmerge v17.0.0 ('Be Ur Friend') 64-bit
_STATISTICS_WRITING_DATE_UTC             : 2018-06-19 21:57:24
_STATISTICS_TAGS                         : BPS DURATION NUMBER_OF_FRAMES NUMBER_OF_BYTES


[/spoiler]



Info: Per scaricare devi usare un client come uTorrent o Transmission
AnnounceURL
udp://tracker.coppersurfer.tk:6969/announce
Hash 45bb74fd80463157ce77fc4b8449db55e192838e
Peers seeds: 27 , leech: 4
Size 1.83 GB
Completato 697x
Aggiunto 16.07.18 - 18:07:39
Uploader   robbyrs
Votazione (Voti: 0)


Condividi questo bittorrent:


html/blog:


bbcode/forum:




Aggiungi Commento