L'Expérience interdite - Flatliners 2017 | тег Призраки | Instrumental Collection Music
 * Dettagli Torrent   globale  | Commenti (0) 


- Osiride - Il 9 pianeta (2016).720p.H264.italian.english.Ac3-5.1.multisub-MIRCrew -


Download via torrent:
Categoria bittorrent BDRip
Descrizione
Science Fiction Volume One: The Osiris Child - Osiride - Il 9 pianeta (2016).720p.H264.italian.english.Ac3-5.1.multisub-MIRCre


NO FOUND ONLY ORIGINAL RELEASE



My release is always in double track audio italian and Original audio
for select it use VLC or dvd player home
not use wmp

Osiride - Il 9 pianeta

Science Fiction Volume One: The Osiris Child

(2016)

Quality MIRCrew on HD 720p da  1,9 gb







Scheda:

Genere Azione
Anno produzione 2016
Attori Kellan Lutz; Daniel MacPherson; Isabel Lucas; Luke Ford; Rachel Griffiths; Temuera Morrison; Bren Foster; Dwaine Stevenson; Teagan Croft; Grace Huang; Firass Dirani; Harry Pavlidis; Paul Winchester; Zoe Ventoura; Brendan Clearkin
Registi Shane Abbess
Durata 98

Trama:

In un futuro distopico dove vige un colonialismo interplanetario, il luogotenente Kane Sommerville (Daniel MacPherson) è costretto a collaborare con un vagabondo (Kellan Lutz) per salvare la vita di sua figlia. L’improbabile coppia di protagonisti si trova a dover fare i conti con un imminente crisi globale e a confrontarsi con i mostri che vivono all’interno di ognuno di loro.

Storyline:

Set in the future in a time of interplanetary colonization, an unlikely pair race against an impending global crisis and are confronted by the monsters that live inside us all.  






Dati file:

[spoiler]
General
Unique ID                                : 295370919312252510393866662014769788943 (0xDE365EAC8DD3F18138D1A27531F1780F)
Complete name                            : Osiride - Il 9 pianeta - The Osiris Child (2016).720p.ita.eng.multisub-MIRCrew\Osiride - Il 9 pianeta - The Osiris Child (2016).720p.ita.eng.multisub-MIRCrew.mkv
Format                                   : Matroska
Format version                           : Version 2
File size                                : 1.90 GiB
Duration                                 : 1h 39mn
Overall bit rate                         : 2 738 Kbps
Movie name                               : MIRCrew
Encoded date                             : UTC 2018-07-14 12:20:06
Writing application                      : Lavf54.63.100
Writing library                          : Lavf54.63.100
COPYRIGHT                                : robbyrs

Video
ID                                       : 1
Format                                   : AVC
Format/Info                              : Advanced Video Codec
Format profile                           : [email protected]
Format settings, CABAC                   : Yes
Format settings, ReFrames                : 2 frames
Codec ID                                 : V_MPEG4/ISO/AVC
Duration                                 : 1h 39mn
Bit rate                                 : 1 787 Kbps
Nominal bit rate                         : 1 900 Kbps
Width                                    : 1 280 pixels
Height                                   : 480 pixels
Display aspect ratio                     : 2.667
Frame rate mode                          : Variable
Frame rate                               : 23.976 fps
Color space                              : YUV
Chroma subsampling                       : 4:2:0
Bit depth                                : 8 bits
Scan type                                : Progressive
Bits/(Pixel*Frame)                       : 0.121
Stream size                              : 1.24 GiB (65%)
Writing library                          : x264 core 130 r2273
Encoding settings                        : cabac=1 / ref=2 / deblock=1:0:0 / analyse=0x1:0x131 / me=hex / subme=7 / psy=1 / psy_rd=1.00:0.00 / mixed_ref=0 / me_range=16 / chroma_me=1 / trellis=1 / 8x8dct=0 / cqm=0 / deadzone=21,11 / fast_pskip=1 / chroma_qp_offset=-2 / threads=3 / lookahead_threads=1 / sliced_threads=0 / nr=0 / decimate=1 / interlaced=0 / bluray_compat=0 / constrained_intra=0 / bframes=3 / b_pyramid=0 / b_adapt=1 / b_bias=0 / direct=3 / weightb=1 / open_gop=0 / weightp=2 / keyint=230 / keyint_min=23 / scenecut=40 / intra_refresh=0 / rc_lookahead=40 / rc=abr / mbtree=1 / bitrate=1900 / ratetol=1.0 / qcomp=0.60 / qpmin=10 / qpmax=69 / qpstep=4 / vbv_maxrate=24000 / vbv_bufsize=24000 / nal_hrd=none / ip_ratio=1.40 / aq=1:1.00
Language                                 : Italian
Default                                  : Yes
Forced                                   : No
DURATION                                 : 01:39:10.023000000
NUMBER_OF_FRAMES                         : 142658
NUMBER_OF_BYTES                          : 6466670532
_STATISTICS_WRITING_APP                  : mkvmerge v12.0.0 ('Trust / Lust') 32bit
_STATISTICS_WRITING_DATE_UTC             : 2017-08-29 18:33:34
_STATISTICS_TAGS                         : BPS DURATION NUMBER_OF_FRAMES NUMBER_OF_BYTES

Audio #1
ID                                       : 2
Format                                   : AC-3
Format/Info                              : Audio Coding 3
Mode extension                           : CM (complete main)
Codec ID                                 : A_AC3
Duration                                 : 1h 39mn
Bit rate mode                            : Constant
Bit rate                                 : 448 Kbps
Channel(s)                               : 6 channels
Channel positions                        : Front: L C R, Side: L R, LFE
Sampling rate                            : 48.0 KHz
Bit depth                                : 16 bits
Compression mode                         : Lossy
Delay relative to video                  : 1mn 5s
Stream size                              : 318 MiB (16%)
Title                                    : Ita Ac3 5.1
Language                                 : Italian
Default                                  : No
Forced                                   : Yes

Audio #2
ID                                       : 3
Format                                   : AC-3
Format/Info                              : Audio Coding 3
Mode extension                           : CM (complete main)
Codec ID                                 : A_AC3
Duration                                 : 1h 39mn
Bit rate mode                            : Constant
Bit rate                                 : 448 Kbps
Channel(s)                               : 6 channels
Channel positions                        : Front: L C R, Side: L R, LFE
Sampling rate                            : 48.0 KHz
Bit depth                                : 16 bits
Compression mode                         : Lossy
Delay relative to video                  : 1mn 5s
Stream size                              : 318 MiB (16%)
Title                                    : Eng Ac3 5.1
Language                                 : English
Default                                  : No
Forced                                   : No
DURATION                                 : 01:39:09.995000000
NUMBER_OF_FRAMES                         : 557812
NUMBER_OF_BYTES                          : 571199488
_STATISTICS_WRITING_APP                  : mkvmerge v12.0.0 ('Trust / Lust') 32bit
_STATISTICS_WRITING_DATE_UTC             : 2017-08-29 18:33:34
_STATISTICS_TAGS                         : BPS DURATION NUMBER_OF_FRAMES NUMBER_OF_BYTES

Menu
00:00:00.000                             : :00:00:00.000
00:07:43.046                             : :00:07:43.046
00:15:23.214                             : :00:15:23.214
00:21:57.066                             : :00:21:57.066
00:29:19.257                             : :00:29:19.257
00:39:41.754                             : :00:39:41.754
00:47:11.412                             : :00:47:11.412
00:54:55.876                             : :00:54:55.876
01:02:26.993                             : :01:02:26.993
01:09:44.389                             : :01:09:44.389
01:17:08.874                             : :01:17:08.874
01:24:50.877                             : :01:24:50.877



[/spoiler]



Info: Per scaricare devi usare un client come uTorrent o Transmission
AnnounceURL
udp://tracker.coppersurfer.tk:6969/announce
Hash 4123f0b2741ee55541064fd2ed34e722591487f5
Peers seeds: 93 , leech: 20
Size 1.90 GB
Completato 3020x
Aggiunto 16.07.18 - 17:07:55
Uploader   robbyrs
Votazione (Voti: 0)


Condividi questo bittorrent:


html/blog:


bbcode/forum:




Aggiungi Commento