Melody Anderson | Bebe Rexha | Policier
 * Dettagli Torrent   globale  | Commenti (0) 


- Le seduttrici - A Good Woman (2004).720p.H264.italian.english.Ac3-sub.NUita-MIRCrew -


Download via torrent:
Categoria bittorrent BDRip
Descrizione
Le seduttrici  - A Good Woman (2004).720p.H264.italian.english.Ac3-sub.NUita-MIRCrew


NO FOUND ONLY ORIGINAL RELEASE



My release is always in double track audio italian and Original audio
for select it use VLC or dvd player home
not use wmp

Le seduttrici  

A Good Woman


(2004)

Quality MIRCrew on HD 720p da  1,5 gb







Scheda:

GENERE: Drammatico
ANNO: 2004
REGIA: Mike Barker
ATTORI: Helen Hunt, Scarlett Johansson, Milena Vukotic, Stephen Campbell Moore, Mark Umbers, Roger Hammond, John Standing, Tom Wilkinson, Giorgia Massetti, Diana Hardcastle, Shara Orano, Jane How, Bruce McGuire, Antonio Barbaro, Valentina D'Uva, Nichola Aigner, Filippo Santoro, Daniela Stanga, Arianna Mansi, Camilla Bertocci, Michael Stromme, Augusto Zucchi, Carolina Levi
PAESE: Gran Bretagna, Spagna, Italia, USA
DURATA: 93 Min

Trama:

Ambientato sulla costiera amalfitana negli anni '30, "Le seduttrici" è una commedia romantica tratta da "Il ventaglio di Lady Windermere" di Oscar Wilde. Il matrimonio di una giovane coppia è messo in crisi dai pettegolezzi dell'alta società. Robert Windermere è accusato di mantenere la signora Erlynne, una donna matura con una pessima reputazione, e sua moglie Meg Windermere accetta la corte di Lord Darlington, un noto playboy.

Storyline:

In 1930, Mrs. Erlynne, who describes herself as poor and infamous, driven from New York society by jealous wives, sees a news photo of wealthy Lord Windermere and his young wife: she heads for the Amalfi Coast to be among the rich and famous for 'the season' and to snare Mr. Windermere. Gossips twitter as he spends his afternoons with her, his wife blissfully innocent as she blushingly fends off attentions from a young English nobleman, an international playboy who thinks he's in love...........





Dati file:

[spoiler]
General
Unique ID                                : 286336699997263099485926906536181454054 (0xD76A7145B9B49BBF4A962367546954E6)
Complete name                            : Le seduttrici  - A Good Woman (2004).720p.ita.eng.sub.NUita-MIRCrew\Le seduttrici  - A Good Woman (2004).720p.ita.eng.sub.NUita-MIRCrew.mkv
Format                                   : Matroska
Format version                           : Version 2
File size                                : 1.45 GiB
Duration                                 : 1h 33mn
Overall bit rate                         : 2 226 Kbps
Encoded date                             : UTC 2018-07-02T10:23:56Z
Writing library                          : Lavf55.12.0

Video
ID                                       : 1
Format                                   : AVC
Format/Info                              : Advanced Video Codec
Format profile                           : [email protected]
Format settings, CABAC                   : Yes
Format settings, ReFrames                : 4 frames
Codec ID                                 : V_MPEG4/ISO/AVC
Duration                                 : 1h 33mn
Bit rate                                 : 1 850 Kbps
Width                                    : 1 280 pixels
Height                                   : 720 pixels
Display aspect ratio                     : 16:9
Frame rate mode                          : Variable
Frame rate                               : 23.976 fps
Color space                              : YUV
Chroma subsampling                       : 4:2:0
Bit depth                                : 8 bits
Scan type                                : Progressive
Bits/(Pixel*Frame)                       : 0.084
Stream size                              : 1.17 GiB (81%)
Writing library                          : x264 core 142 r2479 dd79a61
Encoding settings                        : cabac=1 / ref=3 / deblock=1:0:0 / analyse=0x3:0x113 / me=hex / subme=7 / psy=1 / psy_rd=1.00:0.00 / mixed_ref=1 / me_range=16 / chroma_me=1 / trellis=1 / 8x8dct=1 / cqm=0 / deadzone=21,11 / fast_pskip=1 / chroma_qp_offset=-2 / threads=3 / lookahead_threads=1 / sliced_threads=0 / nr=0 / decimate=1 / interlaced=0 / bluray_compat=0 / constrained_intra=0 / bframes=3 / b_pyramid=2 / b_adapt=1 / b_bias=0 / direct=1 / weightb=1 / open_gop=0 / weightp=2 / keyint=240 / keyint_min=24 / scenecut=40 / intra_refresh=0 / rc_lookahead=40 / rc=abr / mbtree=1 / bitrate=1850 / ratetol=1.0 / qcomp=0.60 / qpmin=0 / qpmax=69 / qpstep=4 / vbv_maxrate=62500 / vbv_bufsize=78125 / nal_hrd=none / filler=0 / ip_ratio=1.40 / aq=1:1.00
Default                                  : Yes
Forced                                   : No
Color primaries                          : BT.709-5, BT.1361, IEC 61966-2-4, SMPTE RP177
Transfer characteristics                 : BT.709-5, BT.1361
Matrix coefficients                      : BT.709-5, BT.1361, IEC 61966-2-4 709, SMPTE RP177

Audio #1
ID                                       : 2
Format                                   : AC-3
Format/Info                              : Audio Coding 3
Mode extension                           : CM (complete main)
Codec ID                                 : A_AC3
Duration                                 : 1h 33mn
Bit rate mode                            : Constant
Bit rate                                 : 192 Kbps
Channel(s)                               : 2 channels
Channel positions                        : Front: L R
Sampling rate                            : 48.0 KHz
Bit depth                                : 16 bits
Compression mode                         : Lossy
Delay relative to video                  : 1mn 5s
Stream size                              : 128 MiB (9%)
Title                                    : Stereo
Language                                 : Italian
Default                                  : Yes
Forced                                   : No

Audio #2
ID                                       : 3
Format                                   : AC-3
Format/Info                              : Audio Coding 3
Mode extension                           : CM (complete main)
Codec ID                                 : A_AC3
Duration                                 : 1h 33mn
Bit rate mode                            : Constant
Bit rate                                 : 192 Kbps
Channel(s)                               : 2 channels
Channel positions                        : Front: L R
Sampling rate                            : 48.0 KHz
Bit depth                                : 16 bits
Compression mode                         : Lossy
Delay relative to video                  : 1mn 5s
Stream size                              : 128 MiB (9%)
Title                                    : Stereo
Language                                 : English
Default                                  : No
Forced                                   : No


[/spoiler]



Info: Per scaricare devi usare un client come uTorrent o Transmission
AnnounceURL
udp://tracker.coppersurfer.tk:6969/announce
Hash 34eb5f40027eb53e7193f1d232c9f719ef7a41a7
Peers seeds: 33 , leech: 6
Size 1.45 GB
Completato 580x
Aggiunto 16.07.18 - 16:07:41
Uploader   robbyrs
Votazione (Voti: 1)


Condividi questo bittorrent:


html/blog:


bbcode/forum:




Aggiungi Commento