The Walking Dead The Final Season Episode 1-CODEX | Alone Together S02E05 WEB x264-TBS [eztv] | Jeux Wii
 * Dettagli Torrent   globale  | Commenti (0) 


- Ready Player One (2018).REPACK.720p.H264.italian.english.Ac3-5.1.sub.NUita.eng-MIRCrew -


Download via torrent:
Categoria bittorrent BDRip
Descrizione
Ready Player One 2018.REPACK.720p.H264.italian.english.Ac3-5.1.sub.NUita.eng-MIRCrew



NO FOUND ONLY ORIGINAL RELEASE


My release is always in double track audio italian and Original audio
for select it use VLC or dvd player home
not use wmp

Ready Player One

2018

Quality MIRCrew on HD 720p da  2,7 gb






Scheda:

GENERE: Azione, Thriller, Fantascienza
ANNO: 2018
REGIA: Steven Spielberg
ATTORI: Tye Sheridan, Olivia Cooke, Ben Mendelsohn, Lena Waithe, T.J. Miller, Simon Pegg, Mark Rylance, Philip Zhao, Win Morisaki, Hannah John-Kamen, Ralph Ineson, Susan Lynch, Clare Higgins, Perdita Weeks, Julia Nickson
PAESE: USA
DURATA: 140 Min
Trama:

Nel 2045 la terra è diventata un luogo inquinato, funestato da guerre, povertà e crisi energetica. Gli abitanti versano in condizioni precarie, stipati in grossi container spogli, senz'altra evasione che il nostalgico mondo virtuale di OASIS. L'universo ispirato ai ruggenti anni ottanta

Storyline:

In the year 2045, the real world is a harsh place. The only time Wade Watts (Tye Sheridan) truly feels alive is when he escapes to the OASIS, an immersive virtual universe where most of humanity spends their days. In the OASIS, you can go anywhere, do anything, be anyone-the only limits are your own imagination.  





Dati file:

[spoiler]
General
Unique ID                                : 189192460118505385944910505596804530166 (0x8E55247599E78B432C946521BFE9FFF6)
Complete name                            : Ready Player One 2018.720p.H264.ita.eng.Ac3-5.1.sub.NUita.eng-MIRCrew\Ready Player One 2018.720p.H264.ita.eng.Ac3-5.1.sub.NUita.eng-MIRCrew.mkv
Format                                   : Matroska
Format version                           : Version 2
File size                                : 2.72 GiB
Duration                                 : 2h 19mn
Overall bit rate                         : 2 785 Kbps
Movie name                               : MIRCRew
Encoded date                             : UTC 2018-07-13 11:14:46
Writing application                      : Lavf54.63.100
Writing library                          : Lavf54.63.100

Video
ID                                       : 1
Format                                   : AVC
Format/Info                              : Advanced Video Codec
Format profile                           : [email protected]
Format settings, CABAC                   : Yes
Format settings, ReFrames                : 2 frames
Codec ID                                 : V_MPEG4/ISO/AVC
Duration                                 : 2h 19mn
Bit rate                                 : 1 900 Kbps
Width                                    : 1 264 pixels
Height                                   : 528 pixels
Display aspect ratio                     : 2.40:1
Frame rate mode                          : Variable
Frame rate                               : 23.976 fps
Color space                              : YUV
Chroma subsampling                       : 4:2:0
Bit depth                                : 8 bits
Scan type                                : Progressive
Bits/(Pixel*Frame)                       : 0.119
Stream size                              : 1.79 GiB (66%)
Writing library                          : x264 core 130 r2273
Encoding settings                        : cabac=1 / ref=2 / deblock=1:0:0 / analyse=0x1:0x131 / me=hex / subme=7 / psy=1 / psy_rd=1.00:0.00 / mixed_ref=0 / me_range=16 / chroma_me=1 / trellis=1 / 8x8dct=0 / cqm=0 / deadzone=21,11 / fast_pskip=1 / chroma_qp_offset=-2 / threads=3 / lookahead_threads=1 / sliced_threads=0 / nr=0 / decimate=1 / interlaced=0 / bluray_compat=0 / constrained_intra=0 / bframes=3 / b_pyramid=0 / b_adapt=1 / b_bias=0 / direct=3 / weightb=1 / open_gop=0 / weightp=2 / keyint=230 / keyint_min=23 / scenecut=40 / intra_refresh=0 / rc_lookahead=40 / rc=abr / mbtree=1 / bitrate=1900 / ratetol=1.0 / qcomp=0.60 / qpmin=10 / qpmax=69 / qpstep=4 / vbv_maxrate=24000 / vbv_bufsize=24000 / nal_hrd=none / ip_ratio=1.40 / aq=1:1.00
Language                                 : Italian
Default                                  : Yes
Forced                                   : No
DURATION                                 : 02:19:58.223000000
NUMBER_OF_FRAMES                         : 201356
NUMBER_OF_BYTES                          : 11364626583
_STATISTICS_WRITING_APP                  : mkvmerge v9.7.1 ('Pandemonium') 64bit
_STATISTICS_WRITING_DATE_UTC             : 2018-07-05 14:40:44
_STATISTICS_TAGS                         : BPS DURATION NUMBER_OF_FRAMES NUMBER_OF_BYTES

Audio #1
ID                                       : 2
Format                                   : AC-3
Format/Info                              : Audio Coding 3
Mode extension                           : CM (complete main)
Codec ID                                 : A_AC3
Duration                                 : 2h 19mn
Bit rate mode                            : Constant
Bit rate                                 : 448 Kbps
Channel(s)                               : 6 channels
Channel positions                        : Front: L C R, Side: L R, LFE
Sampling rate                            : 48.0 KHz
Bit depth                                : 16 bits
Compression mode                         : Lossy
Delay relative to video                  : 1mn 5s
Stream size                              : 449 MiB (16%)
Language                                 : Italian
Default                                  : No
Forced                                   : No
DURATION                                 : 02:19:58.272000000
NUMBER_OF_FRAMES                         : 262446
NUMBER_OF_BYTES                          : 671861760
_STATISTICS_WRITING_APP                  : mkvmerge v9.7.1 ('Pandemonium') 64bit
_STATISTICS_WRITING_DATE_UTC             : 2018-07-05 14:40:44
_STATISTICS_TAGS                         : BPS DURATION NUMBER_OF_FRAMES NUMBER_OF_BYTES

Audio #2
ID                                       : 3
Format                                   : AC-3
Format/Info                              : Audio Coding 3
Mode extension                           : CM (complete main)
Codec ID                                 : A_AC3
Duration                                 : 2h 19mn
Bit rate mode                            : Constant
Bit rate                                 : 448 Kbps
Channel(s)                               : 6 channels
Channel positions                        : Front: L C R, Side: L R, LFE
Sampling rate                            : 48.0 KHz
Bit depth                                : 16 bits
Compression mode                         : Lossy
Delay relative to video                  : 1mn 5s
Stream size                              : 449 MiB (16%)
Language                                 : English
Default                                  : No
Forced                                   : No
DURATION                                 : 02:19:58.272000000
NUMBER_OF_FRAMES                         : 787338
NUMBER_OF_BYTES                          : 1584124804
_STATISTICS_WRITING_APP                  : mkvmerge v9.7.1 ('Pandemonium') 64bit
_STATISTICS_WRITING_DATE_UTC             : 2018-07-05 14:40:44
_STATISTICS_TAGS                         : BPS DURATION NUMBER_OF_FRAMES NUMBER_OF_BYTES

Menu
00:00:00.000                             : 01)00:00:00:000
00:10:08.232                             : 02)00:10:08:232
00:20:18.258                             : 03)00:20:18:258
00:30:37.627                             : 04)00:30:37:627
00:40:38.269                             : 05)00:40:38:269
00:50:08.964                             : 06)00:50:08:964
01:03:01.778                             : 07)01:03:01:778
01:11:55.269                             : 001:11:55:269
01:20:14.726                             : 09)01:20:14:726
01:30:58.327                             : 10)01:30:58:327
01:43:26.742                             : 11)01:43:26:742
01:53:02.150                             : 12)01:53:02:150
02:04:20.161                             : 13)02:04:20:161
02:09:17.249                             : 14)02:09:17:249
02:19:58.014                             : 15)02:19:58:014



[/spoiler]



Info: Per scaricare devi usare un client come uTorrent o Transmission
AnnounceURL
udp://tracker.coppersurfer.tk:6969/announce
Hash 850f7a71ba44815a9e913f5105b5f7d2fe508240
Peers seeds: 217 , leech: 56
Size 2.72 GB
Completato 3600x
Aggiunto 14.07.18 - 13:07:03
Uploader   robbyrs
Votazione (Voti: 0)


Condividi questo bittorrent:


html/blog:


bbcode/forum:




Aggiungi Commento