Castle Rock | Malwarebytes Anti-Malware Premium v2.1.8.1057. | Martial arts
 * Dettagli Torrent   globale  | Commenti (0) 


- Vivere e morire a Los Angeles (1985).720p.H264.italian.english.Ac3-5.1.Multisub-MIRCrew -


Download via torrent:
Categoria bittorrent BDRip
Descrizione
To Live and Die in L.A. - Vivere e morire a Los Angeles  (1985).720p.H264.italian.english.Ac3-5.1.Multisub-MIRCrew



NO FOUND ONLY ORIGINAL RELEASE

My release is always in double track audio italian and Original audio
for select it use VLC or dvd player home
not use wmp

Vivere e morire a Los Angeles

To Live and Die in L.A.


(1985)

Quality MIRCrew on HD 720p da  1,8 gb







Scheda:

Titolo originale To Live and Die in L.A.
Paese di produzione Stati Uniti
Anno 1985
Durata 116 min
Genere azione, poliziesco, drammatico, thriller
Regia William Friedkin
Soggetto Gerald Petievich
Sceneggiatura William Friedkin

Cast:

William Petersen: Richard Chance
Willem Dafoe: Eric "Rick" Masters
John Pankow: John Vukovich
Debra Feuer: Bianca Torres
John Turturro: Carl Cody
Darlanne Fluegel: Ruth Lanier
Dean Stockwell: Bob Grimes
Steve James: Jeff Rice
Robert Downey Sr.: Thomas Bateman
Trama:

L'agente federale Chance è sulle tracce del pittore e falsario Eric Masters, che ha assassinato un suo anziano collega. Ed è pronto a tutto pur di catturare questo feroce criminale, anche ad infrangere regole etiche proprie del lavoro di federale. Il suo nuovo compagno Vukovich è invece restio a infrangere la legge.

Storyline:

Working largely in cases of counterfeiting, LA based Secret Service agent Richie Chance exhibits reckless behavior which according to his longtime and now former partner Jimmy Hart will probably land him in the morgue before he's ready to retire. That need for the thrill manifests itself in his personal life by his love of base jumping. ..........





Dati file:

[spoiler]
General
Unique ID                                : 316882333481767095672142887967646453117 (0xEE6551470608E5AA7EA9202D051E8D7D)
Complete name                            : Vivere e morire a Los Angeles - To Live and Die in L.A.(1985).720p.h264.ita.eng.multisub-MIRCrew\Vivere e morire a Los Angeles (1985).720p.h264.ita.eng.multisub-MIRCrew.mkv
Format                                   : Matroska
Format version                           : Version 2
File size                                : 1.77 GiB
Duration                                 : 1h 55mn
Overall bit rate                         : 2 190 Kbps
Movie name                               : MIRCrew
Encoded date                             : UTC 2016-11-24 12:15:11
Writing application                      : Lavf54.63.100
Writing library                          : Lavf54.63.100

Video
ID                                       : 1
Format                                   : AVC
Format/Info                              : Advanced Video Codec
Format profile                           : [email protected]
Format settings, CABAC                   : Yes
Format settings, ReFrames                : 2 frames
Codec ID                                 : V_MPEG4/ISO/AVC
Duration                                 : 1h 55mn
Bit rate                                 : 1 800 Kbps
Width                                    : 1 280 pixels
Height                                   : 688 pixels
Display aspect ratio                     : 1.860
Frame rate mode                          : Variable
Frame rate                               : 23.976 fps
Color space                              : YUV
Chroma subsampling                       : 4:2:0
Bit depth                                : 8 bits
Scan type                                : Progressive
Bits/(Pixel*Frame)                       : 0.085
Stream size                              : 1.42 GiB (80%)
Title                                    : Vivere e morire a Los Angeles (William Friedkin, 1985)
Writing library                          : x264 core 130 r2273
Encoding settings                        : cabac=1 / ref=2 / deblock=1:0:0 / analyse=0x1:0x131 / me=hex / subme=7 / psy=1 / psy_rd=1.00:0.00 / mixed_ref=0 / me_range=16 / chroma_me=1 / trellis=1 / 8x8dct=0 / cqm=0 / deadzone=21,11 / fast_pskip=1 / chroma_qp_offset=-2 / threads=3 / lookahead_threads=1 / sliced_threads=0 / nr=0 / decimate=1 / interlaced=0 / bluray_compat=0 / constrained_intra=0 / bframes=3 / b_pyramid=0 / b_adapt=1 / b_bias=0 / direct=3 / weightb=1 / open_gop=0 / weightp=2 / keyint=230 / keyint_min=23 / scenecut=40 / intra_refresh=0 / rc_lookahead=40 / rc=abr / mbtree=1 / bitrate=1800 / ratetol=1.0 / qcomp=0.60 / qpmin=10 / qpmax=69 / qpstep=4 / vbv_maxrate=24000 / vbv_bufsize=24000 / nal_hrd=none / ip_ratio=1.40 / aq=1:1.00
Language                                 : Italian
Default                                  : Yes
Forced                                   : No

Audio #1
ID                                       : 2
Format                                   : AC-3
Format/Info                              : Audio Coding 3
Mode extension                           : CM (complete main)
Codec ID                                 : A_AC3
Duration                                 : 1h 55mn
Bit rate mode                            : Constant
Bit rate                                 : 192 Kbps
Channel(s)                               : 2 channels
Channel positions                        : Front: L R
Sampling rate                            : 48.0 KHz
Bit depth                                : 16 bits
Compression mode                         : Lossy
Delay relative to video                  : 1mn 5s
Stream size                              : 159 MiB (9%)
Title                                    : Italiano AC3 2.0 192kbps
Language                                 : Italian
Default                                  : Yes
Forced                                   : No

Audio #2
ID                                       : 3
Format                                   : AC-3
Format/Info                              : Audio Coding 3
Mode extension                           : CM (complete main)
Codec ID                                 : A_AC3
Duration                                 : 1h 55mn
Bit rate mode                            : Constant
Bit rate                                 : 192 Kbps
Channel(s)                               : 2 channels
Channel positions                        : Front: L R
Sampling rate                            : 48.0 KHz
Bit depth                                : 16 bits
Compression mode                         : Lossy
Delay relative to video                  : 1mn 5s
Stream size                              : 159 MiB (9%)
Title                                    : English AC3 5.1 448kbps
Language                                 : English
Default                                  : No
Forced                                   : No

Menu
00:00:00.000                             : :00:00:00.000
00:09:49.631                             : :00:09:49.631
00:19:49.313                             : :00:19:49.313
00:29:54.042                             : :00:29:54.042
00:39:05.510                             : :00:39:05.510
00:47:49.492                             : :00:47:49.492
00:58:52.779                             : :00:58:52.779
01:08:27.270                             : :01:08:27.270
01:15:35.865                             : :01:15:35.865
01:29:24.609                             : :01:29:24.609
01:40:12.298                             : :01:40:12.298
01:45:04.924                             : :01:45:04.924


[/spoiler]



Info: Per scaricare devi usare un client come uTorrent o Transmission
AnnounceURL
udp://tracker.coppersurfer.tk:6969/announce
Hash 389b6c0192fe03cbeb0ad5d50eb9bc29f67663e4
Peers seeds: 16 , leech: 8
Size 1.77 GB
Completato 396x
Aggiunto 13.07.18 - 18:07:54
Uploader   robbyrs
Votazione (Voti: 0)


Condividi questo bittorrent:


html/blog:


bbcode/forum:




Aggiungi Commento