Science fiction | Dirty Sexy Money (0) | The Exception
 * Dettagli Torrent   globale  | Commenti (0) 


- Maria Maddalena (2018).720p.H264.italian.english.Ac3-5.1.sub.ita.eng.MIRCrew -


Download via torrent:
Categoria bittorrent BDRip
Descrizione
Mary Magdalene - Maria Maddalena 2018.720p.H264.italian.english.Ac3-5.1.sub.ita.eng.MIRCrew


NO FOUND ONLY ORIGINAL RELEASE

My release is always in double track audio italian and Original audio
for select it use VLC or dvd player home
not use wmp

Maria Maddalena

Mary Magdalene


2018

Quality MIRCrew on HD 720p da 2,2 gb






Scheda:

GENERE: Drammatico, Storico, Religioso
ANNO: 2018
REGIA: Garth Davis
ATTORI: Rooney Mara, Joaquin Phoenix, Ariane Labed, Chiwetel Ejiofor, Ryan Corr, Lubna Azabal, Tahar Rahim, Shira Haas, Charles Babalola, Denis Ménochet, Hadas Yaron, Tawfeek Barhom, Zohar Shtrauss, Uri Gavriel, Michael Moshonov
PAESE: Gran Bretagna
DURATA: 120 Min




Trama:

Maria Maddalena racconta la storia di una giovane donna in cerca di una nuova vita, che sia finalmente libera dalle tradizioni famigliari e dalla società fortemente gerarchica e maschilista del suo tempo. Troverà l'occasione per intraprendere un cammino di crescita grazie al neonato movimento religioso e sociale fondato dal carismatico Gesù di Nazareth

Storyline:

Judea, 33 AD. Mary is a faithful young girl from the village of Magdala (close to Galilea Lake) unsure to follow the traditions and destiny reserved to the women, living only as wife and mother, in her wish to be free. After to reject a marriage proposal of Ephraim, a family friend, her brother Daniel and her father Elisha make her an exorcism in the belief that she is possessed by a demon.








Dati file:

[spoiler]
General
Unique ID                                : 186416640870670036801321155922381715302 (0x8C3E8A010C469D878A3581F5FB773766)
Complete name                            : Maria Maddalena 2018.720p.h264.ita.eng.sub.ita.eng-MIRCrew\Maria Maddalena 2018.720p.h264.ita.eng.sub.ita.eng-MIRCrew.mkv
Format                                   : Matroska
Format version                           : Version 2
File size                                : 2.19 GiB
Duration                                 : 1h 59mn
Overall bit rate                         : 2 623 Kbps
Movie name                               : MIRCrew
Encoded date                             : UTC 2018-06-29 12:29:58
Writing application                      : mkvmerge v5.4.0 ('Piper') built on Mar 10 2012 13:34:39
Writing library                          : Lavf54.63.100

Video
ID                                       : 1
Format                                   : AVC
Format/Info                              : Advanced Video Codec
Format profile                           : [email protected]
Format settings, CABAC                   : Yes
Format settings, ReFrames                : 2 frames
Codec ID                                 : V_MPEG4/ISO/AVC
Duration                                 : 1h 59mn
Bit rate                                 : 1 850 Kbps
Width                                    : 1 276 pixels
Height                                   : 580 pixels
Display aspect ratio                     : 2.2:1
Frame rate mode                          : Variable
Frame rate                               : 23.976 fps
Color space                              : YUV
Chroma subsampling                       : 4:2:0
Bit depth                                : 8 bits
Scan type                                : Progressive
Bits/(Pixel*Frame)                       : 0.104
Stream size                              : 1.51 GiB (69%)
Writing library                          : x264 core 130 r2273
Encoding settings                        : cabac=1 / ref=2 / deblock=1:0:0 / analyse=0x1:0x131 / me=hex / subme=7 / psy=1 / psy_rd=1.00:0.00 / mixed_ref=0 / me_range=16 / chroma_me=1 / trellis=1 / 8x8dct=0 / cqm=0 / deadzone=21,11 / fast_pskip=1 / chroma_qp_offset=-2 / threads=3 / lookahead_threads=1 / sliced_threads=0 / nr=0 / decimate=1 / interlaced=0 / bluray_compat=0 / constrained_intra=0 / bframes=3 / b_pyramid=0 / b_adapt=1 / b_bias=0 / direct=3 / weightb=1 / open_gop=0 / weightp=2 / keyint=230 / keyint_min=23 / scenecut=40 / intra_refresh=0 / rc_lookahead=40 / rc=abr / mbtree=1 / bitrate=1850 / ratetol=1.0 / qcomp=0.60 / qpmin=10 / qpmax=69 / qpstep=4 / vbv_maxrate=24000 / vbv_bufsize=24000 / nal_hrd=none / ip_ratio=1.40 / aq=1:1.00
Language                                 : Italian
Default                                  : Yes
Forced                                   : No
DURATION                                 : 01:59:47.806000000
NUMBER_OF_FRAMES                         : 172335
NUMBER_OF_BYTES                          : 7392858351
_STATISTICS_WRITING_APP                  : mkvmerge v9.7.1 ('Pandemonium') 64bit
_STATISTICS_WRITING_DATE_UTC             : 2018-06-29 12:29:58
_STATISTICS_TAGS                         : BPS DURATION NUMBER_OF_FRAMES NUMBER_OF_BYTES

Audio #1
ID                                       : 2
Format                                   : AC-3
Format/Info                              : Audio Coding 3
Mode extension                           : CM (complete main)
Codec ID                                 : A_AC3
Duration                                 : 1h 59mn
Bit rate mode                            : Constant
Bit rate                                 : 384 Kbps
Channel(s)                               : 6 channels
Channel positions                        : Front: L C R, Side: L R, LFE
Sampling rate                            : 48.0 KHz
Bit depth                                : 16 bits
Compression mode                         : Lossy
Delay relative to video                  : -5ms
Stream size                              : 329 MiB (15%)
Title                                    : Ita Ac3 5.1
Language                                 : Italian
Default                                  : No
Forced                                   : No
DURATION                                 : 01:59:48.160000000
NUMBER_OF_FRAMES                         : 224630
NUMBER_OF_BYTES                          : 575052800
_STATISTICS_WRITING_APP                  : mkvmerge v9.7.1 ('Pandemonium') 64bit
_STATISTICS_WRITING_DATE_UTC             : 2018-06-29 12:29:58
_STATISTICS_TAGS                         : BPS DURATION NUMBER_OF_FRAMES NUMBER_OF_BYTES

Audio #2
ID                                       : 3
Format                                   : AC-3
Format/Info                              : Audio Coding 3
Mode extension                           : CM (complete main)
Codec ID                                 : A_AC3
Duration                                 : 1h 59mn
Bit rate mode                            : Constant
Bit rate                                 : 384 Kbps
Channel(s)                               : 6 channels
Channel positions                        : Front: L C R, Side: L R, LFE
Sampling rate                            : 48.0 KHz
Bit depth                                : 16 bits
Compression mode                         : Lossy
Delay relative to video                  : -5ms
Stream size                              : 329 MiB (15%)
Title                                    : Eng Ac3 5.1
Language                                 : English
Default                                  : No
Forced                                   : No
DURATION                                 : 01:59:48.182000000
NUMBER_OF_FRAMES                         : 673892
NUMBER_OF_BYTES                          : 1355872360
_STATISTICS_WRITING_APP                  : mkvmerge v9.7.1 ('Pandemonium') 64bit
_STATISTICS_WRITING_DATE_UTC             : 2018-06-29 12:29:58
_STATISTICS_TAGS                         : BPS DURATION NUMBER_OF_FRAMES NUMBER_OF_BYTES

Menu
00:00:00.000                             : 01)00:00:00:000
00:06:50.076                             : 02)00:06:50:076
00:12:28.289                             : 03)00:12:28:289
00:19:45.642                             : 04)00:19:45:642
00:23:35.747                             : 05)00:23:35:747
00:31:02.402                             : 06)00:31:02:402
00:37:16.609                             : 07)00:37:16:609
00:44:48.435                             : 000:44:48:435
00:50:57.846                             : 09)00:50:57:846
00:55:42.756                             : 10)00:55:42:756
01:01:55.837                             : 11)01:01:55:837
01:09:28.330                             : 12)01:09:28:330
01:13:55.013                             : 13)01:13:55:013
01:16:31.336                             : 14)01:16:31:336
01:24:27.562                             : 15)01:24:27:562
01:29:15.516                             : 16)01:29:15:516
01:33:58.799                             : 17)01:33:58:799
01:39:33.801                             : 101:39:33:801
01:44:51.368                             : 19)01:44:51:368
01:53:24.798                             : 20)01:53:24:798
01:59:47.930                             : 21)01:59:47:930



[/spoiler]



Info: Per scaricare devi usare un client come uTorrent o Transmission
AnnounceURL
udp://tracker.coppersurfer.tk:6969/announce
Hash 5906bdc070e6a9ca733cc6fa90fbee8e9bc922ca
Peers seeds: 123 , leech: 17
Size 2.19 GB
Completato 4364x
Aggiunto 07.07.18 - 19:07:03
Uploader   robbyrs
Votazione (Voti: 1)


Condividi questo bittorrent:


html/blog:


bbcode/forum:




Aggiungi Commento