MIT Technology Review 麻省理工技术评论 2018年第373期(增刊) True PDF高清电子版杂志 2018全年最新 微信858185624 | MICHAEL Michael Kors Berkley Sandal wofLuXj | All Categories
 * Dettagli Torrent   globale  | Commenti (0) 


- Braveheart - Cuore Impavido (1995) Uncut.720p.H264.italian.english.Ac3-5.1.sub.ita.eng.MIRCrew -


Download via torrent:
Categoria bittorrent BDRip
Descrizione
Braveheart - Cuore Impavido (1995 Uncut.720p.H264.italian.english.Ac3-5.1.sub.ita.eng.MIRCrew



NO FOUND ONLY ORIGINAL RELEASE



My release is always in double track audio italian and Original audio
for select it use VLC or dvd player home
not use wmp

Braveheart - Cuore Impavido

(1995)

Quality MIRCrew on HD 720p da 3,3 gb






Scheda:

Titolo originale Braveheart
Paese di produzione Stati Uniti d'America
Anno 1995
Durata 177 min
Genere epico, storico, guerra, drammatico, azione
Regia Mel Gibson
Soggetto Randall Wallace
Sceneggiatura Randall Wallace

Cast:

Mel Gibson: William Wallace
Brendan Gleeson: Hamish Campbell
James Cosmo: senior Campbell
Sean McGinley: MacClannough
Catherine McCormack: Murron
Sophie Marceau: Principessa Isabelle
Patrick McGoohan: Re Edoardo I d'Inghilterra
David O'Hara: Stephen, l'irlandese
Angus Macfadyen: Robert Bruce / voce narrante
Ian Bannen: Padre di Robert Bruce, il lebbroso
Tommy Flanagan: Morrison
Peter Hanly: Edoardo Principe di Galles
Brian Cox: Argyle Wallace
Tam White: MacGregor
Alun Armstrong: Mornay




Trama:

Sul finire del XIII secolo, sul trono di Scozia siede l'usurpatore Edoardo I Plantageneto, re d'Inghilterra. Lo scozzese William Wallace, la cui famiglia era stata massacrata dagli inglesi, diventato un uomo colto, ma legato alle tradizioni rurali della terra natia, torna dopo molti anni nel suo villaggio, dove vorrebbe creare una famiglia con la bella Murron che, per eludere lo "jus primae noctis" imposto dal feudatario inglese, sposa in segreto. Poi deve difenderla da un tentativo di stupro, ma catturata, la giovane viene barbaramente uccisa....

Storyline:

When his secret bride is executed for assaulting an English soldier who tried to rape her, William Wallace begins a revolt and leads Scottish warriors against the cruel English tyrant who rules Scotland with an iron fist...........









Dati file:

[spoiler]
General
Unique ID                                : 188682561602145817113221214044058606280 (0x8DF2F08584A95B18A1387B54A434DAC
Complete name                            : Braveheart - Cuore impavido (1995).ita.eng.sub.ita.eng-MIRCrew\Braveheart - Cuore impavido (1995).ita.eng.sub.ita.eng-MIRCrew.mkv
Format                                   : Matroska
Format version                           : Version 2
File size                                : 3.32 GiB
Duration                                 : 2h 57mn
Overall bit rate                         : 2 678 Kbps
Movie name                               : MIRCrew
Encoded date                             : UTC 2018-05-24 15:46:38
Writing application                      : Lavf54.63.100
Writing library                          : Lavf54.63.100
COPYRIGHT                                : robbyrs

Video
ID                                       : 1
Format                                   : AVC
Format/Info                              : Advanced Video Codec
Format profile                           : [email protected]
Format settings, CABAC                   : Yes
Format settings, ReFrames                : 2 frames
Codec ID                                 : V_MPEG4/ISO/AVC
Duration                                 : 2h 57mn
Bit rate                                 : 1 800 Kbps
Width                                    : 1 280 pixels
Height                                   : 544 pixels
Display aspect ratio                     : 2.35:1
Frame rate mode                          : Variable
Frame rate                               : 23.976 fps
Color space                              : YUV
Chroma subsampling                       : 4:2:0
Bit depth                                : 8 bits
Scan type                                : Progressive
Bits/(Pixel*Frame)                       : 0.108
Stream size                              : 2.15 GiB (65%)
Writing library                          : x264 core 130 r2273
Encoding settings                        : cabac=1 / ref=2 / deblock=1:0:0 / analyse=0x1:0x131 / me=hex / subme=7 / psy=1 / psy_rd=1.00:0.00 / mixed_ref=0 / me_range=16 / chroma_me=1 / trellis=1 / 8x8dct=0 / cqm=0 / deadzone=21,11 / fast_pskip=1 / chroma_qp_offset=-2 / threads=3 / lookahead_threads=1 / sliced_threads=0 / nr=0 / decimate=1 / interlaced=0 / bluray_compat=0 / constrained_intra=0 / bframes=3 / b_pyramid=0 / b_adapt=1 / b_bias=0 / direct=3 / weightb=1 / open_gop=0 / weightp=2 / keyint=230 / keyint_min=23 / scenecut=40 / intra_refresh=0 / rc_lookahead=40 / rc=abr / mbtree=1 / bitrate=1800 / ratetol=1.0 / qcomp=0.60 / qpmin=10 / qpmax=69 / qpstep=4 / vbv_maxrate=24000 / vbv_bufsize=24000 / nal_hrd=none / ip_ratio=1.40 / aq=1:1.00
Language                                 : Italian
Default                                  : Yes
Forced                                   : No

Audio #1
ID                                       : 2
Format                                   : AC-3
Format/Info                              : Audio Coding 3
Mode extension                           : CM (complete main)
Codec ID                                 : A_AC3
Duration                                 : 2h 57mn
Bit rate mode                            : Constant
Bit rate                                 : 448 Kbps
Channel(s)                               : 6 channels
Channel positions                        : Front: L C R, Side: L R, LFE
Sampling rate                            : 48.0 KHz
Bit depth                                : 16 bits
Compression mode                         : Lossy
Delay relative to video                  : 1mn 5s
Stream size                              : 570 MiB (17%)
Title                                    : AC3 Ita 5.1
Language                                 : Italian
Default                                  : Yes
Forced                                   : Yes

Audio #2
ID                                       : 3
Format                                   : AC-3
Format/Info                              : Audio Coding 3
Mode extension                           : CM (complete main)
Codec ID                                 : A_AC3
Duration                                 : 2h 57mn
Bit rate mode                            : Constant
Bit rate                                 : 448 Kbps
Channel(s)                               : 6 channels
Channel positions                        : Front: L C R, Side: L R, LFE
Sampling rate                            : 48.0 KHz
Bit depth                                : 16 bits
Compression mode                         : Lossy
Delay relative to video                  : 1mn 5s
Stream size                              : 570 MiB (17%)
Title                                    : AC3 Eng 5.1
Language                                 : English
Default                                  : No
Forced                                   : No

Menu
00:00:00.000                             : :00:00:00.000
00:07:28.531                             : :00:07:28.531
00:16:27.653                             : :00:16:27.653
00:22:03.697                             : :00:22:03.697
00:34:19.891                             : :00:34:19.891
00:39:52.682                             : :00:39:52.682
00:56:07.990                             : :00:56:07.990
01:00:04.267                             : :01:00:04.267
01:07:31.047                             : :01:07:31.047
01:11:54.936                             : :01:11:54.936
01:19:02.738                             : :01:19:02.738
01:33:06.206                             : :01:33:06.206
01:43:47.721                             : :01:43:47.721
01:53:58.456                             : :01:53:58.456
01:59:01.468                             : :01:59:01.468
02:17:18.480                             : :02:17:18.480
02:24:21.986                             : :02:24:21.986
02:28:52.799                             : :02:28:52.799
02:34:15.413                             : :02:34:15.413
02:36:35.094                             : :02:36:35.094
02:46:56.923                             : :02:46:56.923
02:50:46.403                             : :02:50:46.403


[/spoiler]



Info: Per scaricare devi usare un client come uTorrent o Transmission
AnnounceURL
udp://tracker.coppersurfer.tk:6969/announce
Hash 6637610640c73221878a1aa0c7d5fb5ebe0ccbe7
Peers seeds: 44 , leech: 20
Size 3.32 GB
Completato 469x
Aggiunto 07.07.18 - 18:07:09
Uploader   robbyrs
Votazione (Voti: 0)


Condividi questo bittorrent:


html/blog:


bbcode/forum:




Aggiungi Commento