Maurizio Arena | Box-office France: Hôtel Transylvanie 3 fait le plein | Fast Scanner PRO premium
 * Dettagli Torrent   globale  | Commenti (0) 


- L ultimo boyscout (1991) Bruce Willis.720p.H264.italian.english.Ac3-5.1.multisub.MIRCrew -


Download via torrent:
Categoria bittorrent BDRip
Descrizione
The Last Boy Scout - L ultimo boyscout (1991).720p.H264.italian.english.Ac3-5.1.multisub.MIRCrew


NO FOUND ONLY ORIGINAL RELEASE


My release is always in double track audio italian and Original audio
for select it use VLC or dvd player home
not use wmp

L'ultimo boyscout

The Last Boy Scout


(1991)

Quality MIRCrew on HD 720p da  2,0 gb







Scheda:

GENERE: Azione
ANNO: 1991
REGIA: Tony Scott
CAST: Bruce Willis, Damon Wayans, Chelsea Field, Noble Willingham, Taylor Negron, Danielle Harris, Halle Berry, Billy Blanks, Dick Butkus, Kim Coates, Frank Collison, Badja Djola, Clarence Felder, Ken Kells, Tony Longo, Vern Lundquist, Bruce McGill, Bill Medley, Joe Santos, Chelcie Ross, Lynn Swann, Morris Chestnut
PAESE: USA
DURATA: 105 Min
Trama:

Joe Hallenbeck vive a Los Angeles facendo il detective privato, mentre un tempo era uno dei più stimati agenti segreti (in un attentato ha perfino salvato la vita del Presidente americano) e poi ha perso il lavoro, avendo irretito un politico. Dopo che l'amico Mike Matthews lo ha incaricato per cinquecento dollari di proteggere una spogliarellista di colore (Cory), Joe scopre in lui..................

Storyline:

An private detective's protected female witness is murdered, prompting him and the victim's boyfriend to investigate the crime that leads to a corrupt politician and a crooked football team owner.  





Dati file:

[spoiler]
General
Unique ID                                : 213250278267635999993048445942545141067 (0xA06E8278D86EC077817A98C1DC7A4D4B)
Complete name                            : L'ultimo boyscout - The Last Boy Scout (1991).720p.h264.ita.eng.multisub-MIRCrew\L'ultimo boyscout - The Last Boy Scout (1991).720p.h264.ita.eng.multisub-MIRCrew.mkv
Format                                   : Matroska
Format version                           : Version 2
File size                                : 1.98 GiB
Duration                                 : 1h 45mn
Overall bit rate                         : 2 685 Kbps
Movie name                               : MIRCrew
Encoded date                             : UTC 2018-07-03 08:18:43
Writing application                      : mkvmerge v5.4.0 ('Piper') built on Mar 10 2012 13:34:39
Writing library                          : Lavf54.63.100

Video
ID                                       : 1
Format                                   : AVC
Format/Info                              : Advanced Video Codec
Format profile                           : [email protected]
Format settings, CABAC                   : Yes
Format settings, ReFrames                : 2 frames
Codec ID                                 : V_MPEG4/ISO/AVC
Duration                                 : 1h 45mn
Bit rate                                 : 1 800 Kbps
Width                                    : 1 264 pixels
Height                                   : 528 pixels
Display aspect ratio                     : 2.40:1
Frame rate mode                          : Variable
Frame rate                               : 23.976 fps
Color space                              : YUV
Chroma subsampling                       : 4:2:0
Bit depth                                : 8 bits
Scan type                                : Progressive
Bits/(Pixel*Frame)                       : 0.112
Stream size                              : 1.28 GiB (65%)
Writing library                          : x264 core 130 r2273
Encoding settings                        : cabac=1 / ref=2 / deblock=1:0:0 / analyse=0x1:0x131 / me=hex / subme=7 / psy=1 / psy_rd=1.00:0.00 / mixed_ref=0 / me_range=16 / chroma_me=1 / trellis=1 / 8x8dct=0 / cqm=0 / deadzone=21,11 / fast_pskip=1 / chroma_qp_offset=-2 / threads=3 / lookahead_threads=1 / sliced_threads=0 / nr=0 / decimate=1 / interlaced=0 / bluray_compat=0 / constrained_intra=0 / bframes=3 / b_pyramid=0 / b_adapt=1 / b_bias=0 / direct=3 / weightb=1 / open_gop=0 / weightp=2 / keyint=230 / keyint_min=23 / scenecut=40 / intra_refresh=0 / rc_lookahead=40 / rc=abr / mbtree=1 / bitrate=1800 / ratetol=1.0 / qcomp=0.60 / qpmin=10 / qpmax=69 / qpstep=4 / vbv_maxrate=24000 / vbv_bufsize=24000 / nal_hrd=none / ip_ratio=1.40 / aq=1:1.00
Language                                 : Italian
Default                                  : Yes
Forced                                   : No

Audio #1
ID                                       : 2
Format                                   : AC-3
Format/Info                              : Audio Coding 3
Mode extension                           : CM (complete main)
Codec ID                                 : A_AC3
Duration                                 : 1h 45mn
Bit rate mode                            : Constant
Bit rate                                 : 448 Kbps
Channel(s)                               : 6 channels
Channel positions                        : Front: L C R, Side: L R, LFE
Sampling rate                            : 48.0 KHz
Bit depth                                : 16 bits
Compression mode                         : Lossy
Delay relative to video                  : -5ms
Stream size                              : 338 MiB (17%)
Title                                    : Italian AC3 5.1
Language                                 : Italian
Default                                  : Yes
Forced                                   : No

Audio #2
ID                                       : 3
Format                                   : AC-3
Format/Info                              : Audio Coding 3
Mode extension                           : CM (complete main)
Codec ID                                 : A_AC3
Duration                                 : 1h 45mn
Bit rate mode                            : Constant
Bit rate                                 : 448 Kbps
Channel(s)                               : 6 channels
Channel positions                        : Front: L C R, Side: L R, LFE
Sampling rate                            : 48.0 KHz
Bit depth                                : 16 bits
Compression mode                         : Lossy
Delay relative to video                  : -5ms
Stream size                              : 338 MiB (17%)
Title                                    : English AC3 5.1
Language                                 : English
Default                                  : No
Forced                                   : No

Menu
00:00:00.000                             : :Credits (Friday Night's A Great Night for Football)
00:03:00.472                             : :The Game of Billy Cole's Life
00:07:28.907                             : :Rude Awakening
00:10:59.659                             : elivering a Pass
00:12:24.494                             : :The Guy in the Closet
00:16:45.129                             : :Kaboom!
00:19:54.777                             : :Wasted Youth
00:25:16.432                             : :Joking Out of a Jam
00:29:32.479                             : :Street Ambush
00:31:48.448                             : :The Baynard Incident
00:35:08.982                             : :Breaking the Ice
00:39:31.703                             : :A Hell of a Factory Recall
00:46:17.650                             : anger and Cornelius Ride Home
00:48:36.455                             : :His Winning Personality
00:51:59.366                             : :The Game of Jimmy Dix's Life
00:55:28.075                             : :Jimmy's Anguish
00:58:37.931                             : :Roughing Up the Million-Dollar Arm
01:00:55.318                             : :Schocking Intruders
01:02:39.923                             : :Marcone's House
01:06:41.789                             : olice Headquarters
01:08:17.927                             : :Marcone's Scheme
01:10:06.035                             : :Nancy Drew on the Case
01:17:05.412                             : :Going Really Fast
01:20:06.176                             : :Jamming in Traffic
01:24:10.337                             : :The Coliseum
01:31:38.451                             : :Lights Above, Field Below
01:34:27.036                             : :Milo Meets His Match
01:36:32.704                             : :Terms of Endearment
01:40:09.462                             : :Be Prepared; End Credits (Moody River and Friday Night's A Great Night for Football)



[/spoiler]



Info: Per scaricare devi usare un client come uTorrent o Transmission
AnnounceURL
udp://tracker.coppersurfer.tk:6969/announce
Hash 350067017fc287189fbd49b83fc77d29fa7fe80b
Peers seeds: 60 , leech: 16
Size 1.98 GB
Completato 796x
Aggiunto 07.07.18 - 17:07:22
Uploader   robbyrs
Votazione (Voti: 0)


Condividi questo bittorrent:


html/blog:


bbcode/forum:




Aggiungi Commento