Threads Favoritos: 28 | Michelle Hurst | Download APK
 * Dettagli Torrent   globale  | Commenti (1) 


- The 33 (2015) Antonio Banderas.720p.H264.italian.english.Ac3-5.1.sub.ita.MIRCrew -


Download via torrent:
Categoria bittorrent BDRip
Descrizione
The 33 (2015) Antonio Banderas.720p.H264.italian.english.Ac3-5.1.sub.ita.MIRCrew



NO FOUND ONLY ORIGINAL RELEASE

My release is always in double track audio italian and Original audio
for select it use VLC or dvd player home
not use wmp

The 33

(2015)

Quality MIRCrew on HD 720p da  2,1 gb






Scheda:

Lingua originale Inglese
Paese di produzione Cile, Colombia
Anno 2015
Durata 120 min
Genere drammatico
Regia Patricia Riggen
Soggetto Hector Tobar (libro)
José Rivera (soggetto)
Sceneggiatura Mikko Alanne,

Cast:

Antonio Banderas: Mario Sepúlveda
Rodrigo Santoro: Ministro Laurence Golborne
Juliette Binoche: María Segovia
James Brolin: Jeff Hart
Lou Diamond Phillips: Luis "Don Lucho" Urzúa
Mario Casas: Álex Vega
Adriana Barraza: Marta
Kate del Castillo: Katty Valdivia

Trama:

Il 5 agosto 2010 i minatori di servizio alla miniera di San José, nel deserto di Atacama, rimasero intrappolati a settecento metri di profondità dopo il crollo di una lastra di pietra che distrusse il tunnel di collegamento verso la superficie. Senza contatti con la superficie, ma soprattutto senza acqua né cibo....................

Storyline:

Based on the real-life event, when a gold and copper mine collapses, it traps 33 miners underground for 69 days. ..





Dati file:

[spoiler]
General
Unique ID                                : 212828004773495524775593925312215492072 (0xA01D2EC80832B9E79F9E3373FFF3A5E
Complete name                            : The 33 (2015).720p.h264.ita.eng.sub.ita-MIRCrew\The 33 (2015).720p.h264.ita.eng.sub.ita-MIRCrew.mkv
Format                                   : Matroska
Format version                           : Version 2
File size                                : 2.18 GiB
Duration                                 : 2h 7mn
Overall bit rate                         : 2 458 Kbps
Movie name                               : MIRCrew
Encoded date                             : UTC 2018-07-04T17:26:26Z
Writing application                      : mkvmerge v5.4.0 ('Piper') built on Mar 10 2012 13:34:39
Writing library                          : Lavf55.12.0

Video
ID                                       : 1
Format                                   : AVC
Format/Info                              : Advanced Video Codec
Format profile                           : [email protected]
Format settings, CABAC                   : Yes
Format settings, ReFrames                : 4 frames
Codec ID                                 : V_MPEG4/ISO/AVC
Duration                                 : 2h 7mn
Bit rate                                 : 1 900 Kbps
Width                                    : 1 280 pixels
Height                                   : 528 pixels
Display aspect ratio                     : 2.40:1
Frame rate mode                          : Variable
Frame rate                               : 23.976 fps
Color space                              : YUV
Chroma subsampling                       : 4:2:0
Bit depth                                : 8 bits
Scan type                                : Progressive
Bits/(Pixel*Frame)                       : 0.117
Stream size                              : 1.63 GiB (75%)
Writing library                          : x264 core 142 r2479 dd79a61
Encoding settings                        : cabac=1 / ref=3 / deblock=1:0:0 / analyse=0x3:0x113 / me=hex / subme=7 / psy=1 / psy_rd=1.00:0.00 / mixed_ref=1 / me_range=16 / chroma_me=1 / trellis=1 / 8x8dct=1 / cqm=0 / deadzone=21,11 / fast_pskip=1 / chroma_qp_offset=-2 / threads=3 / lookahead_threads=1 / sliced_threads=0 / nr=0 / decimate=1 / interlaced=0 / bluray_compat=0 / constrained_intra=0 / bframes=3 / b_pyramid=2 / b_adapt=1 / b_bias=0 / direct=1 / weightb=1 / open_gop=0 / weightp=2 / keyint=240 / keyint_min=24 / scenecut=40 / intra_refresh=0 / rc_lookahead=40 / rc=abr / mbtree=1 / bitrate=1900 / ratetol=1.0 / qcomp=0.60 / qpmin=0 / qpmax=69 / qpstep=4 / vbv_maxrate=62500 / vbv_bufsize=78125 / nal_hrd=none / filler=0 / ip_ratio=1.40 / aq=1:1.00
Language                                 : Italian
Default                                  : Yes
Forced                                   : No
Color primaries                          : BT.709-5, BT.1361, IEC 61966-2-4, SMPTE RP177
Transfer characteristics                 : BT.709-5, BT.1361
Matrix coefficients                      : BT.709-5, BT.1361, IEC 61966-2-4 709, SMPTE RP177

Audio #1
ID                                       : 2
Format                                   : AC-3
Format/Info                              : Audio Coding 3
Mode extension                           : CM (complete main)
Codec ID                                 : A_AC3
Duration                                 : 2h 7mn
Bit rate mode                            : Constant
Bit rate                                 : 192 Kbps
Channel(s)                               : 2 channels
Channel positions                        : Front: L R
Sampling rate                            : 48.0 KHz
Bit depth                                : 16 bits
Compression mode                         : Lossy
Delay relative to video                  : -5ms
Stream size                              : 175 MiB (8%)
Title                                    : Ita Ac3
Language                                 : Italian
Default                                  : Yes
Forced                                   : No

Audio #2
ID                                       : 3
Format                                   : AC-3
Format/Info                              : Audio Coding 3
Mode extension                           : CM (complete main)
Codec ID                                 : A_AC3
Duration                                 : 2h 7mn
Bit rate mode                            : Constant
Bit rate                                 : 384 Kbps
Channel(s)                               : 6 channels
Channel positions                        : Front: L C R, Side: L R, LFE
Sampling rate                            : 48.0 KHz
Bit depth                                : 16 bits
Compression mode                         : Lossy
Delay relative to video                  : -5ms
Stream size                              : 349 MiB (16%)
Title                                    : Eng Ac3
Language                                 : English
Default                                  : No
Forced                                   : No



[/spoiler]



Info: Per scaricare devi usare un client come uTorrent o Transmission
AnnounceURL
udp://tracker.coppersurfer.tk:6969/announce
Hash cec7a9dfd4bccde065298c896568caa7e081d223
Peers seeds: 48 , leech: 13
Size 2.18 GB
Completato 2009x
Aggiunto 06.07.18 - 16:07:27
Uploader   robbyrs
Votazione (Voti: 0)


Condividi questo bittorrent:


html/blog:


bbcode/forum:




Aggiungi Commento
Ultimi commenti
 jackal98jackal98   
Grazie
07/07 09.30
Tutti commenti (1)