Capital (7) | Empfehlungen | SUPERNATURAL
 * Dettagli Torrent   globale  | Commenti (2) 


- Anon (2018).720p.H264.italian.english.Ac3-5.1.multisub.MIRCrew -


Download via torrent:
Categoria bittorrent BDRip
Descrizione
Anon 2018.720p.H264.italian.english.Ac3-5.1.multisub.MIRCrew



NO FOUND ONLY ORIGINAL RELEASE



My release is always in double track audio italian and Original audio
for select it use VLC or dvd player home
not use wmp

Anon

2018

Quality MIRCrew on HD 720p da  1,9 gb







Scheda:

GENERE: Fantascienza, Thriller
ANNO: 2018
REGIA: Andrew Niccol
ATTORI: Clive Owen, Amanda Seyfried, Colm Feore, Sonya Walger, Mark O'Brien, Joe Pingue, Iddo Goldberg, Sebastian Pigott, Rachel Roberts, Conrad Coates, Mayko Nguyen
PAESE: Germania

Trama:

Un detective vive in un mondo dove la privacy e l'anonimato sono stati eliminati. Un giorno scopre l'esistenza di una donna che non ha impronte digitali e non è riconoscibile. L'incontro con lei lo condurrà sulle tracce di un pericoloso crimine in atto.

Storyline:

In a near-future world where there is no privacy, ignorance or anonymity, our private memories are recorded and crime almost ceases to exist. In trying to solve a series of unsolved murders, SAL FRIELAND (Owen) stumbles onto a young woman (Seyfried) who appears to have subverted the system and disappeared







Dati file:

[spoiler]
General
Unique ID                                : 247329075378555363602140682100759153720 (0xBA11D8E4A64F617DBF44A4AFBB094C3
Complete name                            : Anon 2018.720p.ita.eng.multisub-MIRCrew\Anon 2018.720p.ita.eng.sub.dut.eng.spa.fre-MIRCrew.mkv
Format                                   : Matroska
Format version                           : Version 2
File size                                : 1.90 GiB
Duration                                 : 1h 40mn
Overall bit rate                         : 2 709 Kbps
Movie name                               : MIRCrew
Encoded date                             : UTC 2018-07-03 22:38:29
Writing application                      : mkvmerge v5.4.0 ('Piper') built on Mar 10 2012 13:34:39
Writing library                          : Lavf54.63.100

Video
ID                                       : 1
Format                                   : AVC
Format/Info                              : Advanced Video Codec
Format profile                           : [email protected]
Format settings, CABAC                   : Yes
Format settings, ReFrames                : 2 frames
Codec ID                                 : V_MPEG4/ISO/AVC
Duration                                 : 1h 40mn
Bit rate                                 : 1 900 Kbps
Width                                    : 1 280 pixels
Height                                   : 720 pixels
Display aspect ratio                     : 16:9
Frame rate mode                          : Variable
Frame rate                               : 24.000 fps
Color space                              : YUV
Chroma subsampling                       : 4:2:0
Bit depth                                : 8 bits
Scan type                                : Progressive
Bits/(Pixel*Frame)                       : 0.086
Stream size                              : 1.28 GiB (67%)
Writing library                          : x264 core 130 r2273
Encoding settings                        : cabac=1 / ref=2 / deblock=1:0:0 / analyse=0x1:0x131 / me=hex / subme=7 / psy=1 / psy_rd=1.00:0.00 / mixed_ref=0 / me_range=16 / chroma_me=1 / trellis=1 / 8x8dct=0 / cqm=0 / deadzone=21,11 / fast_pskip=1 / chroma_qp_offset=-2 / threads=3 / lookahead_threads=1 / sliced_threads=0 / nr=0 / decimate=1 / interlaced=0 / bluray_compat=0 / constrained_intra=0 / bframes=3 / b_pyramid=0 / b_adapt=1 / b_bias=0 / direct=3 / weightb=1 / open_gop=0 / weightp=2 / keyint=240 / keyint_min=24 / scenecut=40 / intra_refresh=0 / rc_lookahead=40 / rc=abr / mbtree=1 / bitrate=1900 / ratetol=1.0 / qcomp=0.60 / qpmin=10 / qpmax=69 / qpstep=4 / vbv_maxrate=24000 / vbv_bufsize=24000 / nal_hrd=none / ip_ratio=1.40 / aq=1:1.00
Default                                  : Yes
Forced                                   : No
DURATION                                 : 01:40:10.209000000
NUMBER_OF_FRAMES                         : 144245
NUMBER_OF_BYTES                          : 3465981320
_STATISTICS_WRITING_APP                  : mkvmerge v22.0.0 ('At The End Of The World') 64-bit
_STATISTICS_WRITING_DATE_UTC             : 2018-05-04 07:01:24
_STATISTICS_TAGS                         : BPS DURATION NUMBER_OF_FRAMES NUMBER_OF_BYTES

Audio #1
ID                                       : 2
Format                                   : AC-3
Format/Info                              : Audio Coding 3
Mode extension                           : CM (complete main)
Codec ID                                 : A_AC3
Duration                                 : 1h 40mn
Bit rate mode                            : Constant
Bit rate                                 : 448 Kbps
Channel(s)                               : 6 channels
Channel positions                        : Front: L C R, Side: L R, LFE
Sampling rate                            : 48.0 KHz
Bit depth                                : 16 bits
Compression mode                         : Lossy
Delay relative to video                  : -42ms
Stream size                              : 321 MiB (17%)
Title                                    : ita Ac3 5.1
Language                                 : English
Default                                  : No
Forced                                   : No
DURATION                                 : 01:40:10.400000000
NUMBER_OF_FRAMES                         : 187825
NUMBER_OF_BYTES                          : 288499200
_STATISTICS_WRITING_APP                  : mkvmerge v22.0.0 ('At The End Of The World') 64-bit
_STATISTICS_WRITING_DATE_UTC             : 2018-05-04 07:01:24
_STATISTICS_TAGS                         : BPS DURATION NUMBER_OF_FRAMES NUMBER_OF_BYTES

Audio #2
ID                                       : 3
Format                                   : AC-3
Format/Info                              : Audio Coding 3
Mode extension                           : CM (complete main)
Codec ID                                 : A_AC3
Duration                                 : 1h 40mn
Bit rate mode                            : Constant
Bit rate                                 : 384 Kbps
Channel(s)                               : 6 channels
Channel positions                        : Front: L C R, Side: L R, LFE
Sampling rate                            : 48.0 KHz
Bit depth                                : 16 bits
Compression mode                         : Lossy
Delay relative to video                  : -5ms
Stream size                              : 275 MiB (14%)
Title                                    : eng Ac3 5.1
Language                                 : English
Default                                  : No
Forced                                   : No



[/spoiler]



Info: Per scaricare devi usare un client come uTorrent o Transmission
AnnounceURL
udp://tracker.coppersurfer.tk:6969/announce
Hash 9b030bcef47b54a4d082ae3317e1ebbb38faca30
Peers seeds: 201 , leech: 17
Size 1.90 GB
Completato 7233x
Aggiunto 06.07.18 - 16:07:42
Uploader   robbyrs
Votazione (Voti: 1)


Condividi questo bittorrent:


html/blog:


bbcode/forum:




Aggiungi Commento
Ultimi commenti
  
grazie
07/07 11.24
 jackal98jackal98   
Grazie
07/07 09.31
Tutti commenti (2)