Shots Fired | Goa Trance, Psy-Trance (lossless) | Watch movie
 * Dettagli Torrent   globale  | Commenti (0) 


- TAU (2018).720p.H264.italian.english.Ac3-5.1.multisub.MIRCrew -


Download via torrent:
Categoria bittorrent BDRip
Descrizione
TAU 2018.720p.H264.italian.english.Ac3-5.1.multisub.MIRCrew



NO FOUND ONLY ORIGINAL RELEASE


My release is always in double track audio italian and Original audio
for select it use VLC or dvd player home
not use wmp

TAU

2018

Quality MIRCrew on HD 720p da  1,9 gb







Scheda:

GENERE: Fantascienza, Thriller
ANNO: 2018
REGIA: Federico D'Alessandro
ATTORI: Maika Monroe, Ed Skrein, Gary Oldman
PAESE: USA
DURATA: 107 Min

Trama:

Protagonista del film è Julia (Maika Monroe), una giovane donna che in un futuro non ben definito viene rapita e si risveglia inchiodata a una sedia in una strana dimora governata da un'Intelligenza Artificiale inventata da uno scienziato pazzo con il volto di Ed Skrein.

Storyline:

A woman is held captive in a futuristic smart house and hopes to escape by breaking into the computer programs that control the house.







Dati file:

[spoiler]
General
Unique ID                                : 201877958187263694987062508623361413957 (0x97E047CD6FB74AA98014DC5E46271345)
Complete name                            : TAU 2018.720p.ita.eng.multisub-MIRCrew\TAU 2018.720p.ita.eng.multisub-MIRCrew.mkv
Format                                   : Matroska
Format version                           : Version 2
File size                                : 1.86 GiB
Duration                                 : 1h 37mn
Overall bit rate                         : 2 728 Kbps
Movie name                               : MIRCRew
Encoded date                             : UTC 2018-07-03T14:52:46Z
Writing application                      : mkvmerge v5.4.0 ('Piper') built on Mar 10 2012 13:34:39
Writing library                          : Lavf55.12.0

Video
ID                                       : 1
Format                                   : AVC
Format/Info                              : Advanced Video Codec
Format profile                           : [email protected]
Format settings, CABAC                   : Yes
Format settings, ReFrames                : 4 frames
Codec ID                                 : V_MPEG4/ISO/AVC
Duration                                 : 1h 37mn
Bit rate                                 : 1 900 Kbps
Width                                    : 1 280 pixels
Height                                   : 544 pixels
Display aspect ratio                     : 2.35:1
Frame rate mode                          : Variable
Frame rate                               : 23.976 fps
Color space                              : YUV
Chroma subsampling                       : 4:2:0
Bit depth                                : 8 bits
Scan type                                : Progressive
Bits/(Pixel*Frame)                       : 0.114
Stream size                              : 1.26 GiB (68%)
Writing library                          : x264 core 142 r2479 dd79a61
Encoding settings                        : cabac=1 / ref=3 / deblock=1:0:0 / analyse=0x3:0x113 / me=hex / subme=7 / psy=1 / psy_rd=1.00:0.00 / mixed_ref=1 / me_range=16 / chroma_me=1 / trellis=1 / 8x8dct=1 / cqm=0 / deadzone=21,11 / fast_pskip=1 / chroma_qp_offset=-2 / threads=3 / lookahead_threads=1 / sliced_threads=0 / nr=0 / decimate=1 / interlaced=0 / bluray_compat=0 / constrained_intra=0 / bframes=3 / b_pyramid=2 / b_adapt=1 / b_bias=0 / direct=1 / weightb=1 / open_gop=0 / weightp=2 / keyint=240 / keyint_min=24 / scenecut=40 / intra_refresh=0 / rc_lookahead=40 / rc=abr / mbtree=1 / bitrate=1900 / ratetol=1.0 / qcomp=0.60 / qpmin=0 / qpmax=69 / qpstep=4 / vbv_maxrate=62500 / vbv_bufsize=78125 / nal_hrd=none / filler=0 / ip_ratio=1.40 / aq=1:1.00
Language                                 : Italian
Default                                  : Yes
Forced                                   : No
Color primaries                          : BT.709-5, BT.1361, IEC 61966-2-4, SMPTE RP177
Transfer characteristics                 : BT.709-5, BT.1361
Matrix coefficients                      : BT.709-5, BT.1361, IEC 61966-2-4 709, SMPTE RP177

Audio #1
ID                                       : 2
Format                                   : AC-3
Format/Info                              : Audio Coding 3
Mode extension                           : CM (complete main)
Codec ID                                 : A_AC3
Duration                                 : 1h 37mn
Bit rate mode                            : Constant
Bit rate                                 : 448 Kbps
Channel(s)                               : 6 channels
Channel positions                        : Front: L C R, Side: L R, LFE
Sampling rate                            : 48.0 KHz
Bit depth                                : 16 bits
Compression mode                         : Lossy
Delay relative to video                  : -83ms
Stream size                              : 313 MiB (16%)
Title                                    : Ita Ac3 5.1
Language                                 : Italian
Default                                  : No
Forced                                   : No

Audio #2
ID                                       : 3
Format                                   : AC-3
Format/Info                              : Audio Coding 3
Mode extension                           : CM (complete main)
Codec ID                                 : A_AC3
Duration                                 : 1h 37mn
Bit rate mode                            : Constant
Bit rate                                 : 384 Kbps
Channel(s)                               : 6 channels
Channel positions                        : Front: L C R, Side: L R, LFE
Sampling rate                            : 48.0 KHz
Bit depth                                : 16 bits
Compression mode                         : Lossy
Delay relative to video                  : -5ms
Stream size                              : 268 MiB (14%)
Title                                    : Eng Ac3 5.1
Language                                 : English
Default                                  : No
Forced                                   : No



[/spoiler]



Info: Per scaricare devi usare un client come uTorrent o Transmission
AnnounceURL
udp://tracker.coppersurfer.tk:6969/announce
Hash 22340025220f716c71a01fb647b8bae8be76f371
Peers seeds: 137 , leech: 57
Size 1.86 GB
Completato 2387x
Aggiunto 04.07.18 - 19:07:05
Uploader   robbyrs
Votazione (Voti: 2)


Condividi questo bittorrent:


html/blog:


bbcode/forum:




Aggiungi Commento