Coffee Cat Mama | Télécharger Part 1 | City Planning & Urban Development
 * Dettagli Torrent   globale  | Commenti (0) 


- E arrivato il Broncio (2018).H264.italian.english.Ac3-5.1.sub.ita.MIRCrew -


Download via torrent:
Categoria bittorrent BDRip
Descrizione
Here Comes the Grump - E' arrivato il Broncio 2018.H264.italian.english.Ac3-5.1.sub.ita.MIRCrew



NO FOUND ONLY ORIGINAL RELEASE



My release is always in double track audio italian and Original audio
for select it use VLC or dvd player home
not use wmp

E' arrivato il Broncio

Here Comes the Grump

2018








Scheda:

GENERE: Animazione, Avventura, Commedia, Family, Fantasy
ANNO: 2018
REGIA: Andrés Couturier
ATTORI: Toby Kebbell, Lily Collins, Ian McShane
PAESE: Gran Bretagna, Messico
DURATA: 90 Min

Trama:

Per un ragazzino riservato come Terry, trascorrere le vacanze estive nello straordinario parco divertimenti della nonna Mary, era un'esperienza incredibile. Con la sua fervida immaginazione poteva viaggiare in terre incantate e incontrare personaggi psichedelici, alberi che camminano, palloncini parlanti, orchidee che bisbigliano e draghi pasticcioni.

Storyline:

Balloon kingdoms, dopey police dragons and happy wizards are exactly how Terry remembered his Grandmother's whacky fairy tales. Except they are real and it's definitely not as 'cheerful.'  







Dati file:

[spoiler]
General
Unique ID                                : 214364330722728469127924762252085002536 (0xA145117FB24A5844AECAF215EEF3812
Complete name                            : E arrivato il Broncio - Here Comes the Grump 2018.H264.ita.eng.sub.ita-MIRCrew\E arrivato il Broncio - Here Comes the Grump 2018.H264.ita.eng.sub.ita-MIRCrew.mkv
Format                                   : Matroska
Format version                           : Version 2
File size                                : 1.41 GiB
Duration                                 : 1h 37mn
Overall bit rate                         : 2 073 Kbps
Movie name                               : MIRCrew
Encoded date                             : UTC 2018-06-29 10:23:11
Writing application                      : mkvmerge v5.4.0 ('Piper') built on Mar 10 2012 13:34:39
Writing library                          : Lavf54.63.100

Video
ID                                       : 1
Format                                   : AVC
Format/Info                              : Advanced Video Codec
Format profile                           : [email protected]
Format settings, CABAC                   : Yes
Format settings, ReFrames                : 2 frames
Codec ID                                 : V_MPEG4/ISO/AVC
Duration                                 : 1h 37mn
Bit rate                                 : 1 300 Kbps
Width                                    : 720 pixels
Height                                   : 304 pixels
Display aspect ratio                     : 2.40:1
Frame rate mode                          : Variable
Frame rate                               : 23.976 fps
Color space                              : YUV
Chroma subsampling                       : 4:2:0
Bit depth                                : 8 bits
Scan type                                : Progressive
Bits/(Pixel*Frame)                       : 0.248
Stream size                              : 882 MiB (61%)
Writing library                          : x264 core 130 r2273
Encoding settings                        : cabac=1 / ref=2 / deblock=1:0:0 / analyse=0x1:0x131 / me=hex / subme=7 / psy=1 / psy_rd=1.00:0.00 / mixed_ref=0 / me_range=16 / chroma_me=1 / trellis=1 / 8x8dct=0 / cqm=0 / deadzone=21,11 / fast_pskip=1 / chroma_qp_offset=-2 / threads=3 / lookahead_threads=1 / sliced_threads=0 / nr=0 / decimate=1 / interlaced=0 / bluray_compat=0 / constrained_intra=0 / bframes=3 / b_pyramid=0 / b_adapt=1 / b_bias=0 / direct=3 / weightb=1 / open_gop=0 / weightp=2 / keyint=230 / keyint_min=23 / scenecut=40 / intra_refresh=0 / rc_lookahead=40 / rc=abr / mbtree=1 / bitrate=1300 / ratetol=1.0 / qcomp=0.60 / qpmin=10 / qpmax=69 / qpstep=4 / vbv_maxrate=24000 / vbv_bufsize=24000 / nal_hrd=none / ip_ratio=1.40 / aq=1:1.00
Language                                 : Italian
Default                                  : Yes
Forced                                   : No
DURATION                                 : 01:37:33.181000000
NUMBER_OF_FRAMES                         : 140336
NUMBER_OF_BYTES                          : 3845757403
_STATISTICS_WRITING_APP                  : mkvmerge v9.7.1 ('Pandemonium') 64bit
_STATISTICS_WRITING_DATE_UTC             : 2018-06-26 13:59:33
_STATISTICS_TAGS                         : BPS DURATION NUMBER_OF_FRAMES NUMBER_OF_BYTES

Audio #1
ID                                       : 2
Format                                   : AC-3
Format/Info                              : Audio Coding 3
Mode extension                           : CM (complete main)
Codec ID                                 : A_AC3
Duration                                 : 1h 37mn
Bit rate mode                            : Constant
Bit rate                                 : 384 Kbps
Channel(s)                               : 6 channels
Channel positions                        : Front: L C R, Side: L R, LFE
Sampling rate                            : 48.0 KHz
Bit depth                                : 16 bits
Compression mode                         : Lossy
Delay relative to video                  : -5ms
Stream size                              : 268 MiB (19%)
Title                                    : Ita Ac3 5.1
Language                                 : Italian
Default                                  : No
Forced                                   : No
DURATION                                 : 01:37:33.696000000
NUMBER_OF_FRAMES                         : 182928
NUMBER_OF_BYTES                          : 468295680
_STATISTICS_WRITING_APP                  : mkvmerge v9.7.1 ('Pandemonium') 64bit
_STATISTICS_WRITING_DATE_UTC             : 2018-06-26 13:59:33
_STATISTICS_TAGS                         : BPS DURATION NUMBER_OF_FRAMES NUMBER_OF_BYTES

Audio #2
ID                                       : 3
Format                                   : AC-3
Format/Info                              : Audio Coding 3
Mode extension                           : CM (complete main)
Codec ID                                 : A_AC3
Duration                                 : 1h 37mn
Bit rate mode                            : Constant
Bit rate                                 : 384 Kbps
Channel(s)                               : 6 channels
Channel positions                        : Front: L C R, Side: L R, LFE
Sampling rate                            : 48.0 KHz
Bit depth                                : 16 bits
Compression mode                         : Lossy
Delay relative to video                  : -5ms
Stream size                              : 268 MiB (19%)
Title                                    : Eng Ac3 5.1
Language                                 : English
Default                                  : No
Forced                                   : No
DURATION                                 : 01:37:33.686000000
NUMBER_OF_FRAMES                         : 548783
NUMBER_OF_BYTES                          : 1104151396
_STATISTICS_WRITING_APP                  : mkvmerge v9.7.1 ('Pandemonium') 64bit
_STATISTICS_WRITING_DATE_UTC             : 2018-06-26 13:59:33
_STATISTICS_TAGS                         : BPS DURATION NUMBER_OF_FRAMES NUMBER_OF_BYTES

Menu
00:00:00.000                             : :00:00:00.000
00:01:06.900                             : :00:01:06.900
00:08:48.236                             : :00:08:48.236
00:15:37.979                             : :00:15:37.979
00:19:49.021                             : :00:19:49.021
00:24:55.119                             : :00:24:55.119
00:30:25.991                             : :00:30:25.991
00:41:00.708                             : :00:41:00.708
00:49:52.406                             : :00:49:52.406
00:58:23.125                             : :00:58:23.125
01:11:00.381                             : :01:11:00.381
01:15:13.259                             : :01:15:13.259
01:26:21.551                             : :01:26:21.551


[/spoiler]



Info: Per scaricare devi usare un client come uTorrent o Transmission
AnnounceURL
udp://tracker.coppersurfer.tk:6969/announce
Hash ca1537920f2612ce266208fca1439c469c3a0195
Peers seeds: 141 , leech: 19
Size 1.41 GB
Completato 2647x
Aggiunto 03.07.18 - 23:07:22
Uploader   robbyrs
Votazione (Voti: 2)


Condividi questo bittorrent:


html/blog:


bbcode/forum:




Aggiungi Commento