85140 01:56:39 50% Baywatch Free Movie Download | Coleen Gray | Camera Obscura
 * Dettagli Torrent   globale  | Commenti (0) 


- Metti la nonna in freezer (2018)e.720p.H264.italian.Ac3-5.1.sub.NUita.MIRCrew -


Download via torrent:
Categoria bittorrent BDRip
Descrizione
Metti la nonna in freezer 2018.720p.H264.italian.Ac3-5.1.sub.NUita.MIRCrew


NO FOUND ONLY ORIGINAL RELEASE



My release is always in double track audio italian and Original audio
for select it use VLC or dvd player home
not use wmp

Metti la nonna in freezer

2018

Quality MIRCrew on HD 720p da  1,6 gb







Scheda:

GENERE: Commedia
ANNO: 2018
REGIA: Giancarlo Fontana, Giuseppe G. Stasi

PAESE: Italia
DURATA: 100 Min

Cast:

Fabio De Luigi, Miriam Leone, Barbara Bouchet, Maurizio Lombardi, Marina Rocco, Francesco Di Leva, Lucia Ocone, Eros Pagni, Carlo Luca De Ruggieri, Susy Laude

Trama:

Metti la nonna in freezer vede come protagonisti Fabio De Luigi nei panni di Simone Recchia, un finanziere impacciato ma incorruttibile, pronto a perseguire giustizia a tutti i costi, e Miriam Leone nel ruolo di Claudia, una giovane restauratrice che vive grazie alla pensione della nonna (Barbara Bouchet), mentre aspetta da tempo di essere pagata dallo Stato per il lavoro svolto

Storyline:

Simone, a clumsy financier, falls in love with Claudia, who's living on her grandma's retirement checks. When the old lady dies Claudia hides the body in a freezer, and sets up a fraud with the help of some friends to avoid bankruptcy.






Dati file:

[spoiler]
General
Unique ID                                : 72161031119395198224552391809824225287 (0x3649B58549D769929F505DC84BA87807)
Complete name                            : Metti la nonna in freezer 2018.720p.h264.ita.sub.NUita-MIRCrew\Metti la nonna in freezer 2018.720p.h264.ita.sub.NUita-MIRCrew.mkv
Format                                   : Matroska
Format version                           : Version 2
File size                                : 1.62 GiB
Duration                                 : 1h 43mn
Overall bit rate                         : 2 237 Kbps
Movie name                               : MIRCrew
Encoded date                             : UTC 2018-07-02 08:24:35
Writing application                      : Lavf54.63.100
Writing library                          : Lavf54.63.100

Video
ID                                       : 1
Format                                   : AVC
Format/Info                              : Advanced Video Codec
Format profile                           : [email protected]
Format settings, CABAC                   : Yes
Format settings, ReFrames                : 2 frames
Codec ID                                 : V_MPEG4/ISO/AVC
Duration                                 : 1h 43mn
Bit rate                                 : 1 800 Kbps
Width                                    : 1 280 pixels
Height                                   : 528 pixels
Display aspect ratio                     : 2.40:1
Frame rate mode                          : Variable
Frame rate                               : 24.000 fps
Color space                              : YUV
Chroma subsampling                       : 4:2:0
Bit depth                                : 8 bits
Scan type                                : Progressive
Bits/(Pixel*Frame)                       : 0.111
Stream size                              : 1.26 GiB (78%)
Writing library                          : x264 core 130 r2273
Encoding settings                        : cabac=1 / ref=2 / deblock=1:0:0 / analyse=0x1:0x131 / me=hex / subme=7 / psy=1 / psy_rd=1.00:0.00 / mixed_ref=0 / me_range=16 / chroma_me=1 / trellis=1 / 8x8dct=0 / cqm=0 / deadzone=21,11 / fast_pskip=1 / chroma_qp_offset=-2 / threads=3 / lookahead_threads=1 / sliced_threads=0 / nr=0 / decimate=1 / interlaced=0 / bluray_compat=0 / constrained_intra=0 / bframes=3 / b_pyramid=0 / b_adapt=1 / b_bias=0 / direct=3 / weightb=1 / open_gop=0 / weightp=2 / keyint=240 / keyint_min=24 / scenecut=40 / intra_refresh=0 / rc_lookahead=40 / rc=abr / mbtree=1 / bitrate=1800 / ratetol=1.0 / qcomp=0.60 / qpmin=10 / qpmax=69 / qpstep=4 / vbv_maxrate=24000 / vbv_bufsize=24000 / nal_hrd=none / ip_ratio=1.40 / aq=1:1.00
Language                                 : Italian
Default                                  : Yes
Forced                                   : No
DURATION                                 : 01:43:39.167000000
NUMBER_OF_FRAMES                         : 149260
NUMBER_OF_BYTES                          : 5846221433
_STATISTICS_WRITING_APP                  : mkvmerge v9.7.1 ('Pandemonium') 64bit
_STATISTICS_WRITING_DATE_UTC             : 2018-06-29 12:04:10
_STATISTICS_TAGS                         : BPS DURATION NUMBER_OF_FRAMES NUMBER_OF_BYTES

Audio
ID                                       : 2
Format                                   : AC-3
Format/Info                              : Audio Coding 3
Mode extension                           : CM (complete main)
Codec ID                                 : A_AC3
Duration                                 : 1h 43mn
Bit rate mode                            : Constant
Bit rate                                 : 448 Kbps
Channel(s)                               : 6 channels
Channel positions                        : Front: L C R, Side: L R, LFE
Sampling rate                            : 48.0 KHz
Bit depth                                : 16 bits
Compression mode                         : Lossy
Delay relative to video                  : 1mn 5s
Stream size                              : 332 MiB (20%)
Language                                 : Italian
Default                                  : No
Forced                                   : No
DURATION                                 : 01:43:39.552000000
NUMBER_OF_FRAMES                         : 194361
NUMBER_OF_BYTES                          : 497564160
_STATISTICS_WRITING_APP                  : mkvmerge v9.7.1 ('Pandemonium') 64bit
_STATISTICS_WRITING_DATE_UTC             : 2018-06-29 12:04:10
_STATISTICS_TAGS                         : BPS DURATION NUMBER_OF_FRAMES NUMBER_OF_BYTES

Menu
00:00:00.000                             : 01)00:00:00:000
00:07:01.333                             : 02)00:07:01:333
00:17:52.000                             : 03)00:17:52:000
00:24:06.500                             : 04)00:24:06:500
00:36:47.333                             : 05)00:36:47:333
00:48:30.125                             : 06)00:48:30:125
00:54:23.791                             : 07)00:54:23:791
00:59:21.083                             : 000:59:21:083
01:08:53.666                             : 09)01:08:53:666
01:15:52.541                             : 10)01:15:52:541
01:24:57.166                             : 11)01:24:57:166
01:35:43.125                             : 12)01:35:43:125




[/spoiler]



Info: Per scaricare devi usare un client come uTorrent o Transmission
AnnounceURL
udp://tracker.coppersurfer.tk:6969/announce
Hash df1381fbb6541e7b75bb5a3d5b86bb5ee7fe503b
Peers seeds: 307 , leech: 37
Size 1.62 GB
Completato 8519x
Aggiunto 03.07.18 - 20:07:10
Uploader   robbyrs
Votazione (Voti: 2)


Condividi questo bittorrent:


html/blog:


bbcode/forum:




Aggiungi Commento