Alias Grace | Dream Lovers (1986) | Deadpool (2016) 1080p BluRay x264 [Dual-Audio] [English DD 5.1 + Hindi DD 5.1] - NicK
 * Dettagli Torrent   globale  | Commenti (0) 


- Lady Bird (2017).720p.H264.italian.english.Ac3-5.1.sub.ita.eng.MIRCrew -


Download via torrent:
Categoria bittorrent BDRip
Descrizione
Lady Bird (2017).720p.H264.italian.english.Ac3-5.1.sub.ita.eng.MIRCrew


NO FOUND ONLY ORIGINAL RELEASE



My release is always in double track audio italian and Original audio
for select it use VLC or dvd player home
not use wmp

Lady Bird

(2017)

Quality MIRCrew on HD 720p da  1,7 gb







Scheda:

GENERE: Commedia, Drammatico
ANNO: 2017
REGIA: Greta Gerwig
PAESE: USA
DURATA: 94 Min

Cast:

Saoirse Ronan, Laurie Metcalf, Tracy Letts, Lucas Hedges, Odeya Rush, Timothée Chalamet, Kathryn Newton, Jake McDorman, Lois Smith, Laura Marano

Trama:

Lady Bird è il sofisticato, ricercatissimo soprannome che l'adolescente Christine MacPherson (Saoirse Ronan) sceglie per se stessa. Nata e cresciuta a Sacramento, in California, Christine sogna di trasferirsi in una grande città cosmopolita della costa orientale (“o nel luogo in cui gli scrittori si appartano nei boschi”) per frequentare una prestigiosa università dove vivere avventure e scovare opportunità a ogni angolo

Storyline:

Christine "Lady Bird" MacPherson is a high school senior from the "wrong side of the tracks." She longs for adventure, sophistication, and opportunity, but finds none of that in her Sacramento Catholic high school. LADY BIRD follows the title character's senior year in high school, including her first romance, her participation in the school play, and most importantly, her applying for college.





Dati file:

[spoiler]
General
Unique ID                                : 220781881678687014722913591601779758528 (0xA6190B3099626722B6EA47A2B1A4D5C0)
Complete name                            : Lady Bird (2017).720p.h264.ita.eng.sub.ita.eng-MIRCrew\Lady Bird (2017).720p.h264.ita.eng.sub.ita.eng-MIRCrew.mkv
Format                                   : Matroska
Format version                           : Version 2
File size                                : 1.67 GiB
Duration                                 : 1h 34mn
Overall bit rate                         : 2 518 Kbps
Movie name                               : MIRCrew
Encoded date                             : UTC 2018-06-30 19:29:37
Writing application                      : mkvmerge v5.4.0 ('Piper') built on Mar 10 2012 13:34:39
Writing library                          : Lavf54.63.100

Video
ID                                       : 1
Format                                   : AVC
Format/Info                              : Advanced Video Codec
Format profile                           : [email protected]
Format settings, CABAC                   : Yes
Format settings, ReFrames                : 2 frames
Codec ID                                 : V_MPEG4/ISO/AVC
Duration                                 : 1h 34mn
Bit rate                                 : 1 700 Kbps
Nominal bit rate                         : 1 800 Kbps
Width                                    : 1 280 pixels
Height                                   : 688 pixels
Display aspect ratio                     : 1.853
Frame rate mode                          : Variable
Frame rate                               : 23.976 fps
Color space                              : YUV
Chroma subsampling                       : 4:2:0
Bit depth                                : 8 bits
Scan type                                : Progressive
Bits/(Pixel*Frame)                       : 0.080
Stream size                              : 1.12 GiB (68%)
Writing library                          : x264 core 130 r2273
Encoding settings                        : cabac=1 / ref=2 / deblock=1:0:0 / analyse=0x1:0x131 / me=hex / subme=7 / psy=1 / psy_rd=1.00:0.00 / mixed_ref=0 / me_range=16 / chroma_me=1 / trellis=1 / 8x8dct=0 / cqm=0 / deadzone=21,11 / fast_pskip=1 / chroma_qp_offset=-2 / threads=3 / lookahead_threads=1 / sliced_threads=0 / nr=0 / decimate=1 / interlaced=0 / bluray_compat=0 / constrained_intra=0 / bframes=3 / b_pyramid=0 / b_adapt=1 / b_bias=0 / direct=3 / weightb=1 / open_gop=0 / weightp=2 / keyint=230 / keyint_min=23 / scenecut=40 / intra_refresh=0 / rc_lookahead=40 / rc=abr / mbtree=1 / bitrate=1800 / ratetol=1.0 / qcomp=0.60 / qpmin=10 / qpmax=69 / qpstep=4 / vbv_maxrate=24000 / vbv_bufsize=24000 / nal_hrd=none / ip_ratio=1.40 / aq=1:1.00
Language                                 : Italian
Default                                  : Yes
Forced                                   : No
DURATION                                 : 01:34:41.384000000
NUMBER_OF_FRAMES                         : 136217
NUMBER_OF_BYTES                          : 7957743799
_STATISTICS_WRITING_APP                  : mkvmerge v9.7.1 ('Pandemonium') 64bit
_STATISTICS_WRITING_DATE_UTC             : 2018-06-16 09:29:57
_STATISTICS_TAGS                         : BPS DURATION NUMBER_OF_FRAMES NUMBER_OF_BYTES

Audio #1
ID                                       : 2
Format                                   : AC-3
Format/Info                              : Audio Coding 3
Mode extension                           : CM (complete main)
Codec ID                                 : A_AC3
Duration                                 : 1h 34mn
Bit rate mode                            : Constant
Bit rate                                 : 384 Kbps
Channel(s)                               : 6 channels
Channel positions                        : Front: L C R, Side: L R, LFE
Sampling rate                            : 48.0 KHz
Bit depth                                : 16 bits
Compression mode                         : Lossy
Delay relative to video                  : -5ms
Stream size                              : 260 MiB (15%)
Title                                    : Ita Ac3 5.1
Language                                 : Italian
Default                                  : No
Forced                                   : No
DURATION                                 : 01:34:41.472000000
NUMBER_OF_FRAMES                         : 177546
NUMBER_OF_BYTES                          : 454517760
_STATISTICS_WRITING_APP                  : mkvmerge v9.7.1 ('Pandemonium') 64bit
_STATISTICS_WRITING_DATE_UTC             : 2018-06-16 09:29:57
_STATISTICS_TAGS                         : BPS DURATION NUMBER_OF_FRAMES NUMBER_OF_BYTES

Audio #2
ID                                       : 3
Format                                   : AC-3
Format/Info                              : Audio Coding 3
Mode extension                           : CM (complete main)
Codec ID                                 : A_AC3
Duration                                 : 1h 34mn
Bit rate mode                            : Constant
Bit rate                                 : 384 Kbps
Channel(s)                               : 6 channels
Channel positions                        : Front: L C R, Side: L R, LFE
Sampling rate                            : 48.0 KHz
Bit depth                                : 16 bits
Compression mode                         : Lossy
Delay relative to video                  : -5ms
Stream size                              : 260 MiB (15%)
Title                                    : Eng Ac3 5.1
Language                                 : English
Default                                  : No
Forced                                   : No
DURATION                                 : 01:34:41.472000000
NUMBER_OF_FRAMES                         : 532638
NUMBER_OF_BYTES                          : 1071667724
_STATISTICS_WRITING_APP                  : mkvmerge v9.7.1 ('Pandemonium') 64bit
_STATISTICS_WRITING_DATE_UTC             : 2018-06-16 09:29:57
_STATISTICS_TAGS                         : BPS DURATION NUMBER_OF_FRAMES NUMBER_OF_BYTES

Menu
00:00:00.000                             : 01)00:00:00:000
00:03:59.155                             : 02)00:03:59:155
00:08:08.446                             : 03)00:08:08:446
00:14:03.300                             : 04)00:14:03:300
00:18:58.428                             : 05)00:18:58:428
00:22:53.997                             : 06)00:22:53:997
00:27:33.485                             : 07)00:27:33:485
00:32:57.350                             : 000:32:57:350
00:35:30.128                             : 09)00:35:30:128
00:41:11.677                             : 10)00:41:11:677
00:46:29.077                             : 11)00:46:29:077
00:51:40.055                             : 12)00:51:40:055
00:56:23.463                             : 13)00:56:23:463
01:02:18.192                             : 14)01:02:18:192
01:04:44.714                             : 15)01:04:44:714
01:09:10.396                             : 16)01:09:10:396
01:14:44.104                             : 17)01:14:44:104
01:21:55.076                             : 101:21:55:076
01:26:40.069                             : 19)01:26:40:069
01:29:10.386                             : 20)01:29:10:386
01:34:41.217                             : 21)01:34:41:217


[/spoiler]



Info: Per scaricare devi usare un client come uTorrent o Transmission
AnnounceURL
udp://tracker.coppersurfer.tk:6969/announce
Hash af44cb900fc4e486ac2463427e2b912043cebdbd
Peers seeds: 122 , leech: 34
Size 1.67 GB
Completato 1862x
Aggiunto 02.07.18 - 15:07:57
Uploader   robbyrs
Votazione (Voti: 0)


Condividi questo bittorrent:


html/blog:


bbcode/forum:




Aggiungi Commento