Ousama Game The Animation | Télécharger Part 3 | Operacion Red Sparrow (2018) [BrRip 720p...
 * Dettagli Torrent   globale  | Commenti (0) 


- Paolo - Apostolo di Cristo (2018).720p.H264.italian.english.Ac3-5.1.sub.ita.eng.MIRCrew -


Download via torrent:
Categoria bittorrent BDRip
Descrizione
Paul, Apostle of Christ - Paolo - Apostolo di Cristo 2018.720p.H264.italian.english.Ac3-5.1.sub.ita.eng.MIRCrew


NO FOUND ONLY ORIGINAL RELEASE



My release is always in double track audio italian and Original audio
for select it use VLC or dvd player home
not use wmp

Paolo - Apostolo di Cristo

Paul, Apostle of Christ


2018

Quality MIRCrew on HD 720p da  2,0 gb







Scheda:

Paese di produzione Stati Uniti d'America
Anno 2018
Genere drammatico
Regia Andrew Hyatt

Cast:

   James Faulkner: San Paolo
   Jim Caviezel: San Luca
   Olivier Martinez: Mauritius, prefetto del carcere Mamertino
   Antonia Campbell-Hughes: Irenica, moglie di Mauritius
   Joanne Whalley: Priscilla, amica di Paolo e moglie di Aquila
   John Lynch: Aquila, amico di Paolo e marito di Priscilla
   Noah Huntley: Publius
   Yorgos Karamihos: San Paolo, Paolo prima della sua conversione al Cristianesimo
   Alessandro Sperduti: Cassius

Trama:

L'ambientazione è Carcere Mamertino a Roma, dove Paolo è stato imprigionato perché ritenuto una minaccia per l'Impero Romano. L'imperatore Nerone lo ha condannato a morte. Il lungo viaggio di Paolo in questo posto è stato ricco di eventi. Un tempo - come Saul, perseguitava i cristiani senza sosta. Poi, una volta convertitosi al cristianesimo, è diventato il perseguitato. Durante il suo percorso di vita ha conosciuto le percosse, la tortura e il naufragio.

Storyline:

The story covers Paul going from the most infamous persecutor of Christians to Jesus Christ's most influential apostle..





Dati file:

[spoiler]
General
Unique ID                                : 230918999914209339047578370899012145746 (0xADB961B4E18039E6A6326416BA46D252)
Complete name                            : Paolo - Apostolo di Cristo - Paul, Apostle of Christ 2018.720p.ita.eng.sub.ita.eng-MIRCrew\Paolo - Apostolo di Cristo - Paul, Apostle of Christ  2018.720p.ita.eng.sub.ita.eng-MIRCrew.mkv
Format                                   : Matroska
Format version                           : Version 2
File size                                : 2.00 GiB
Duration                                 : 1h 47mn
Overall bit rate                         : 2 650 Kbps
Movie name                               : MIRCrew
Encoded date                             : UTC 2018-06-27 14:03:05
Writing application                      : mkvmerge v5.4.0 ('Piper') built on Mar 10 2012 13:34:39
Writing library                          : Lavf54.63.100

Video
ID                                       : 1
Format                                   : AVC
Format/Info                              : Advanced Video Codec
Format profile                           : [email protected]
Format settings, CABAC                   : Yes
Format settings, ReFrames                : 2 frames
Codec ID                                 : V_MPEG4/ISO/AVC
Duration                                 : 1h 47mn
Bit rate                                 : 1 900 Kbps
Width                                    : 1 280 pixels
Height                                   : 544 pixels
Display aspect ratio                     : 2.40:1
Original display aspect ratio            : 2.40:1
Frame rate mode                          : Variable
Frame rate                               : 23.976 fps
Color space                              : YUV
Chroma subsampling                       : 4:2:0
Bit depth                                : 8 bits
Scan type                                : Progressive
Bits/(Pixel*Frame)                       : 0.114
Stream size                              : 1.38 GiB (69%)
Writing library                          : x264 core 130 r2273
Encoding settings                        : cabac=1 / ref=2 / deblock=1:0:0 / analyse=0x1:0x131 / me=hex / subme=7 / psy=1 / psy_rd=1.00:0.00 / mixed_ref=0 / me_range=16 / chroma_me=1 / trellis=1 / 8x8dct=0 / cqm=0 / deadzone=21,11 / fast_pskip=1 / chroma_qp_offset=-2 / threads=3 / lookahead_threads=1 / sliced_threads=0 / nr=0 / decimate=1 / interlaced=0 / bluray_compat=0 / constrained_intra=0 / bframes=3 / b_pyramid=0 / b_adapt=1 / b_bias=0 / direct=3 / weightb=1 / open_gop=0 / weightp=2 / keyint=230 / keyint_min=23 / scenecut=40 / intra_refresh=0 / rc_lookahead=40 / rc=abr / mbtree=1 / bitrate=1900 / ratetol=1.0 / qcomp=0.60 / qpmin=10 / qpmax=69 / qpstep=4 / vbv_maxrate=24000 / vbv_bufsize=24000 / nal_hrd=none / ip_ratio=1.40 / aq=1:1.00
Language                                 : Italian
Default                                  : Yes
Forced                                   : No
DURATION                                 : 01:47:45.751000000
NUMBER_OF_FRAMES                         : 155023
NUMBER_OF_BYTES                          : 7149216418
_STATISTICS_WRITING_APP                  : mkvmerge v9.7.1 ('Pandemonium') 64bit
_STATISTICS_WRITING_DATE_UTC             : 2018-06-15 13:36:16
_STATISTICS_TAGS                         : BPS DURATION NUMBER_OF_FRAMES NUMBER_OF_BYTES

Audio #1
ID                                       : 2
Format                                   : AC-3
Format/Info                              : Audio Coding 3
Mode extension                           : CM (complete main)
Codec ID                                 : A_AC3
Duration                                 : 1h 47mn
Bit rate mode                            : Constant
Bit rate                                 : 384 Kbps
Channel(s)                               : 6 channels
Channel positions                        : Front: L C R, Side: L R, LFE
Sampling rate                            : 48.0 KHz
Bit depth                                : 16 bits
Compression mode                         : Lossy
Delay relative to video                  : -5ms
Stream size                              : 296 MiB (14%)
Title                                    : Ita Ac3 5.1
Language                                 : Italian
Default                                  : Yes
Forced                                   : No
DURATION                                 : 01:47:46.464000000
NUMBER_OF_FRAMES                         : 202077
NUMBER_OF_BYTES                          : 517317120
_STATISTICS_WRITING_APP                  : mkvmerge v9.7.1 ('Pandemonium') 64bit
_STATISTICS_WRITING_DATE_UTC             : 2018-06-15 13:36:16
_STATISTICS_TAGS                         : BPS DURATION NUMBER_OF_FRAMES NUMBER_OF_BYTES

Audio #2
ID                                       : 3
Format                                   : AC-3
Format/Info                              : Audio Coding 3
Mode extension                           : CM (complete main)
Codec ID                                 : A_AC3
Duration                                 : 1h 47mn
Bit rate mode                            : Constant
Bit rate                                 : 384 Kbps
Channel(s)                               : 6 channels
Channel positions                        : Front: L C R, Side: L R, LFE
Sampling rate                            : 48.0 KHz
Bit depth                                : 16 bits
Compression mode                         : Lossy
Delay relative to video                  : -5ms
Stream size                              : 296 MiB (14%)
Title                                    : Eng Ac3 5.1
Language                                 : English
Default                                  : No
Forced                                   : No
DURATION                                 : 01:47:46.464000000
NUMBER_OF_FRAMES                         : 606231
NUMBER_OF_BYTES                          : 1219737520
_STATISTICS_WRITING_APP                  : mkvmerge v9.7.1 ('Pandemonium') 64bit
_STATISTICS_WRITING_DATE_UTC             : 2018-06-15 13:36:16
_STATISTICS_TAGS                         : BPS DURATION NUMBER_OF_FRAMES NUMBER_OF_BYTES

Menu
00:00:00.000                             : 01)00:00:00:000
00:07:58.436                             : 02)00:07:58:436
00:14:52.099                             : 03)00:14:52:099
00:22:26.136                             : 04)00:22:26:136
00:29:26.181                             : 05)00:29:26:181
00:36:19.302                             : 06)00:36:19:302
00:40:36.183                             : 07)00:40:36:183
00:46:59.525                             : 000:46:59:525
00:52:04.454                             : 09)00:52:04:454
00:55:47.552                             : 10)00:55:47:552
01:00:38.176                             : 11)01:00:38:176
01:08:15.591                             : 12)01:08:15:591
01:19:16.001                             : 13)01:19:16:001
01:24:19.429                             : 14)01:24:19:429
01:28:38.604                             : 15)01:28:38:604
01:34:40.007                             : 16)01:34:40:007



[/spoiler]



Info: Per scaricare devi usare un client come uTorrent o Transmission
AnnounceURL
udp://tracker.coppersurfer.tk:6969/announce
Hash d623f347f3110ebf4360a2c218621ed211fdcab5
Peers seeds: 144 , leech: 18
Size 2.00 GB
Completato 3690x
Aggiunto 29.06.18 - 19:06:25
Uploader   robbyrs
Votazione (Voti: 2)


Condividi questo bittorrent:


html/blog:


bbcode/forum:




Aggiungi Commento