Future World 2018 720p WEB-DL MkvCage MKV | 5x16 Young & Hungry | http://viagrage nerika.info
 * Dettagli Torrent   globale  | Commenti (2) 


- Pacific Rim 2 La rivolta - Uprising (2018).720p.H264.italian.english.Ac3-5.1.sub.eng.MIRCrew -


Download via torrent:
Categoria bittorrent BDRip
Descrizione
Pacific Rim: Uprising - La rivolta 2018.720p.H264.italian.english.Ac3-5.1.sub.eng.MIRCrew



NO FOUND ONLY ORIGINAL RELEASE



My release is always in double track audio italian and Original audio
for select it use VLC or dvd player home
not use wmp

Pacific Rim: Uprising

La rivolta


2018

Quality MIRCrew on HD 720p da  2,0 gb






SCHEDA:

Titolo originale Pacific Rim: Uprising
Lingua originale inglese
Paese di produzione Stati Uniti d'America, Cina, Regno Unito
Anno 2018
Durata 111 min
Rapporto 2,35 : 1
Genere azione, fantascienza, avventura
Regia Steven S. DeKnight
Soggetto Travis Beacham

CAST:

   John Boyega: Jake Pentecost
   Scott Eastwood: Nathan 'Nate' Lambert
   Cailee Spaeny: Amara Namani
   Charlie Day: dott. Newton Geiszler
   Burn Gorman: dott. Hermann Gottlieb
   Jing Tian: Shao Liwen
   Rinko Kikuchi: Mako Mori
   Adria Arjona: Jules Reyes
   Karan Brar: Suresh
   Dustin Clare: Joseph Burke
   Nick E. Tarabay: Sonny
   Daniel Feuerriegel: tenente Allan Gronetti
   Zhu Zhu: Juen

TRAMA:

Dieci anni dopo la battaglia che ha causato la chiusura della breccia, la ricostruzione del mondo è ancora incompleta. Se da un lato alcune città si sono riprese e prosperano, molte altre, in primis quelle direttamente colpite dagli attacchi dei Kaiju, si trovano ancora in gravissime crisi. Fra queste città vi è Los Angeles: qui Jake Pentecost (figlio dell'eroe di guerra Stacker Pentecost) vive in ville abbandonate sulla costa e rubando rottami di Jaeger da rivendere al mercato nero in cambio di beni primari........

STORYLINE:

Jake Pentecost, son of Stacker Pentecost, reunites with Mako Mori to lead a new generation of Jaeger pilots, including rival Lambert and 15-year-old hacker Amara, against a new Kaiju threat.








DATI FILE:

[spoiler]
General
Unique ID                                : 224378505249921530886383782256552199574 (0xA8CDBA6C37AAD3F291B6795C2D3C4596)
Complete name                            : Pacific Rim Uprising 2018.720p.H264.ita.eng.sub.eng-MIRCrew.mkv
Format                                   : Matroska
Format version                           : Version 2
File size                                : 2.07 GiB
Duration                                 : 1h 50mn
Overall bit rate                         : 2 675 Kbps
Movie name                               : MIRCrew
Encoded date                             : UTC 2018-06-29 06:07:25
Writing application                      : mkvmerge v5.4.0 ('Piper') built on Mar 10 2012 13:34:39
Writing library                          : libebml v1.2.3 + libmatroska v1.3.0
DURATION                                 : 01:50:35.929000000
NUMBER_OF_FRAMES                         : 1913
NUMBER_OF_BYTES                          : 55208
_STATISTICS_WRITING_APP                  : mkvmerge v14.0.0 ('Flow') 32bit
_STATISTICS_WRITING_DATE_UTC             : 2018-06-09 05:30:00
_STATISTICS_TAGS                         : BPS DURATION NUMBER_OF_FRAMES NUMBER_OF_BYTES

Video
ID                                       : 1
Format                                   : AVC
Format/Info                              : Advanced Video Codec
Format profile                           : [email protected]
Format settings, CABAC                   : Yes
Format settings, ReFrames                : 12 frames
Codec ID                                 : V_MPEG4/ISO/AVC
Duration                                 : 1h 50mn
Bit rate                                 : 1 649 Kbps
Width                                    : 1 280 pixels
Height                                   : 536 pixels
Display aspect ratio                     : 2.40:1
Frame rate                               : 23.976 fps
Color space                              : YUV
Chroma subsampling                       : 4:2:0
Bit depth                                : 8 bits
Scan type                                : Progressive
Bits/(Pixel*Frame)                       : 0.100
Stream size                              : 1.24 GiB (60%)
Writing library                          : x264 core 148 r2744 b97ae06
Encoding settings                        : cabac=1 / ref=12 / deblock=1:0:0 / analyse=0x3:0x133 / me=umh / subme=10 / psy=1 / psy_rd=1.00:0.15 / mixed_ref=1 / me_range=24 / chroma_me=1 / trellis=2 / 8x8dct=1 / cqm=0 / deadzone=21,11 / fast_pskip=1 / chroma_qp_offset=-3 / threads=12 / lookahead_threads=2 / sliced_threads=0 / nr=0 / decimate=1 / interlaced=0 / bluray_compat=0 / constrained_intra=0 / bframes=8 / b_pyramid=2 / b_adapt=2 / b_bias=0 / direct=3 / weightb=1 / open_gop=0 / weightp=2 / keyint=230 / keyint_min=23 / scenecut=40 / intra_refresh=0 / rc_lookahead=60 / rc=2pass / mbtree=1 / bitrate=1649 / ratetol=1.0 / qcomp=0.60 / qpmin=10 / qpmax=51 / qpstep=4 / cplxblur=20.0 / qblur=0.5 / vbv_maxrate=40000 / vbv_bufsize=62500 / nal_hrd=none / filler=0 / ip_ratio=1.40 / aq=1:1.00
Language                                 : Italian
Default                                  : Yes
Forced                                   : Yes
DURATION                                 : 01:50:42.136000000
NUMBER_OF_FRAMES                         : 159252
NUMBER_OF_BYTES                          : 1369076098
_STATISTICS_WRITING_APP                  : mkvmerge v14.0.0 ('Flow') 32bit
_STATISTICS_WRITING_DATE_UTC             : 2018-06-09 05:30:00
_STATISTICS_TAGS                         : BPS DURATION NUMBER_OF_FRAMES NUMBER_OF_BYTES
Color primaries                          : BT.709-5, BT.1361, IEC 61966-2-4, SMPTE RP177
Transfer characteristics                 : BT.709-5, BT.1361
Matrix coefficients                      : BT.709-5, BT.1361, IEC 61966-2-4 709, SMPTE RP177

Audio #1
ID                                       : 2
Format                                   : AC-3
Format/Info                              : Audio Coding 3
Mode extension                           : CM (complete main)
Codec ID                                 : A_AC3
Duration                                 : 1h 50mn
Bit rate mode                            : Constant
Bit rate                                 : 640 Kbps
Channel(s)                               : 6 channels
Channel positions                        : Front: L C R, Side: L R, LFE
Sampling rate                            : 48.0 KHz
Bit depth                                : 16 bits
Compression mode                         : Lossy
Stream size                              : 507 MiB (24%)
Title                                    : Ita Ac3 5.1
Language                                 : Italian
Default                                  : No
Forced                                   : No

Audio #2
ID                                       : 3
Format                                   : AC-3
Format/Info                              : Audio Coding 3
Mode extension                           : CM (complete main)
Codec ID                                 : A_AC3
Duration                                 : 1h 50mn
Bit rate mode                            : Constant
Bit rate                                 : 384 Kbps
Channel(s)                               : 6 channels
Channel positions                        : Front: L C R, Side: L R, LFE
Sampling rate                            : 48.0 KHz
Bit depth                                : 16 bits
Compression mode                         : Lossy
Stream size                              : 304 MiB (14%)
Title                                    : Eng Ac3 5.1
Language                                 : English
Default                                  : No
Forced                                   : Yes

Text
ID                                       : 4
Format                                   : UTF-8
Codec ID                                 : S_TEXT/UTF8
Codec ID/Info                            : UTF-8 Plain Text
Language                                 : English
Default                                  : Yes
Forced                                   : Yes


[/spoiler]



Info: Per scaricare devi usare un client come uTorrent o Transmission
AnnounceURL
udp://tracker.coppersurfer.tk:6969/announce
Hash 126cbeefabab3f019de1c8eca17ac1afe0c20284
Peers seeds: 269 , leech: 50
Size 2.07 GB
Completato 10646x
Aggiunto 29.06.18 - 11:06:44
Uploader   robbyrs
Votazione (Voti: 3)


Condividi questo bittorrent:


html/blog:


bbcode/forum:




Aggiungi Commento
Ultimi commenti
  
OTTIMO! Grazie mille
29/06 23.19
avatar   robbyrs   
Non è uno screener l'audio italiano è  Ac3 5.1  640 kbps  mentre l'audio inglese  Ac3 5.1 338 kbps
29/06 11.46
Tutti commenti (2)