Method Man | Angel From Hell | Nicholas Burns
 * Dettagli Torrent   globale  | Commenti (2) 


- Quello che non so di lei (2017).720p.H264.italian.french.Ac3-5.1.sub.ita-MIRCrew -


Download via torrent:
Categoria bittorrent BDRip
Descrizione
Quello che non so di lei - D'après une histoire vraie (2017).720p.H264.italian.french.Ac3-5.1.sub.ita.MIRCrew


NO FOUND ONLY ORIGINAL RELEASE



My release is always in double track audio italian and Original audio
for select it use VLC or dvd player home
not use wmp

Quello che non so di lei

D'après une histoire vraie


(2017)

Quality MIRCrew on HD 720p da  1,9 gb








GENERE: Drammatico, Thriller
ANNO: 2017
REGIA: Roman Polanski
PAESE: Francia, Belgio
DURATA: 110 Min



Emmanuelle Seigner, Eva Green, Vincent Perez, Dominique Pinon, Brigitte Roüan, Noémie Lvovsky, Josée Dayan, Damien Bonnard, Saadia Bentaieb



Vede protagonista la scrittrice Delphine de Vigan vittima di un blocco creativo dopo il primo romanzo. Al best seller dedicato alla figura di sua madre sono seguite una serie di lettere anonime che l'accusano di aver dato la sua famiglia in pasto al pubblico. ..................



A writer goes through a tough period after the release of her latest book, as she gets involved with an obsessive admirer..









[spoiler]
General
Unique ID                                : 264762117563884864990716992051339205559 (0xC72F543BACC3028EC43BB5DEEB921BB7)
Complete name                            : Quello che non so di lei (2017).720p.h264.ita.fre-MIRCrew\Quello che non so di lei (2017).720p.h264.ita.fre-MIRCrew.mkv
Format                                   : Matroska
Format version                           : Version 2
File size                                : 1.91 GiB
Duration                                 : 1h 41mn
Overall bit rate                         : 2 711 Kbps
Movie name                               : MIRCrew
Encoded date                             : UTC 2018-06-26 21:21:29
Writing application                      : Lavf54.63.100
Writing library                          : Lavf54.63.100

Video
ID                                       : 1
Format                                   : AVC
Format/Info                              : Advanced Video Codec
Format profile                           : [email protected]
Format settings, CABAC                   : Yes
Format settings, ReFrames                : 2 frames
Codec ID                                 : V_MPEG4/ISO/AVC
Duration                                 : 1h 41mn
Bit rate                                 : 1 900 Kbps
Width                                    : 1 280 pixels
Height                                   : 528 pixels
Display aspect ratio                     : 2.40:1
Frame rate mode                          : Variable
Frame rate                               : 24.000 fps
Color space                              : YUV
Chroma subsampling                       : 4:2:0
Bit depth                                : 8 bits
Scan type                                : Progressive
Bits/(Pixel*Frame)                       : 0.117
Stream size                              : 1.33 GiB (70%)
Writing library                          : x264 core 130 r2273
Encoding settings                        : cabac=1 / ref=2 / deblock=1:0:0 / analyse=0x1:0x131 / me=hex / subme=7 / psy=1 / psy_rd=1.00:0.00 / mixed_ref=0 / me_range=16 / chroma_me=1 / trellis=1 / 8x8dct=0 / cqm=0 / deadzone=21,11 / fast_pskip=1 / chroma_qp_offset=-2 / threads=3 / lookahead_threads=1 / sliced_threads=0 / nr=0 / decimate=1 / interlaced=0 / bluray_compat=0 / constrained_intra=0 / bframes=3 / b_pyramid=0 / b_adapt=1 / b_bias=0 / direct=3 / weightb=1 / open_gop=0 / weightp=2 / keyint=240 / keyint_min=24 / scenecut=40 / intra_refresh=0 / rc_lookahead=40 / rc=abr / mbtree=1 / bitrate=1900 / ratetol=1.0 / qcomp=0.60 / qpmin=10 / qpmax=69 / qpstep=4 / vbv_maxrate=24000 / vbv_bufsize=24000 / nal_hrd=none / ip_ratio=1.40 / aq=1:1.00
Language                                 : Italian
Default                                  : Yes
Forced                                   : No
DURATION                                 : 01:41:07.000000000
NUMBER_OF_FRAMES                         : 145608
NUMBER_OF_BYTES                          : 8220611907
_STATISTICS_WRITING_APP                  : mkvmerge v9.7.1 ('Pandemonium') 64bit
_STATISTICS_WRITING_DATE_UTC             : 2018-06-16 09:41:13
_STATISTICS_TAGS                         : BPS DURATION NUMBER_OF_FRAMES NUMBER_OF_BYTES

Audio #1
ID                                       : 2
Format                                   : AC-3
Format/Info                              : Audio Coding 3
Mode extension                           : CM (complete main)
Codec ID                                 : A_AC3
Duration                                 : 1h 41mn
Bit rate mode                            : Constant
Bit rate                                 : 384 Kbps
Channel(s)                               : 6 channels
Channel positions                        : Front: L C R, Side: L R, LFE
Sampling rate                            : 48.0 KHz
Bit depth                                : 16 bits
Compression mode                         : Lossy
Delay relative to video                  : 1mn 5s
Stream size                              : 278 MiB (14%)
Language                                 : Italian
Default                                  : No
Forced                                   : No
DURATION                                 : 01:41:07.136000000
NUMBER_OF_FRAMES                         : 189598
NUMBER_OF_BYTES                          : 485370880
_STATISTICS_WRITING_APP                  : mkvmerge v9.7.1 ('Pandemonium') 64bit
_STATISTICS_WRITING_DATE_UTC             : 2018-06-16 09:41:13
_STATISTICS_TAGS                         : BPS DURATION NUMBER_OF_FRAMES NUMBER_OF_BYTES

Audio #2
ID                                       : 3
Format                                   : AC-3
Format/Info                              : Audio Coding 3
Mode extension                           : CM (complete main)
Codec ID                                 : A_AC3
Duration                                 : 1h 41mn
Bit rate mode                            : Constant
Bit rate                                 : 384 Kbps
Channel(s)                               : 6 channels
Channel positions                        : Front: L C R, Side: L R, LFE
Sampling rate                            : 48.0 KHz
Bit depth                                : 16 bits
Compression mode                         : Lossy
Delay relative to video                  : 1mn 5s
Stream size                              : 278 MiB (14%)
Language                                 : French
Default                                  : No
Forced                                   : No
DURATION                                 : 01:41:07.147000000
NUMBER_OF_FRAMES                         : 568795
NUMBER_OF_BYTES                          : 1144416488
_STATISTICS_WRITING_APP                  : mkvmerge v9.7.1 ('Pandemonium') 64bit
_STATISTICS_WRITING_DATE_UTC             : 2018-06-16 09:41:13
_STATISTICS_TAGS                         : BPS DURATION NUMBER_OF_FRAMES NUMBER_OF_BYTES

Menu
00:00:00.000                             : 01)00:00:00:000
00:05:15.333                             : 02)00:05:15:333
00:11:46.750                             : 03)00:11:46:750
00:18:48.000                             : 04)00:18:48:000
00:28:29.666                             : 05)00:28:29:666
00:36:41.333                             : 06)00:36:41:333
00:48:39.708                             : 07)00:48:39:708
01:01:00.333                             : 001:01:00:333
01:11:11.916                             : 09)01:11:11:916
01:20:10.958                             : 10)01:20:10:958
01:32:13.250                             : 11)01:32:13:250
01:36:48.666                             : 12)01:36:48:666


[/spoiler]



Info: Per scaricare devi usare un client come uTorrent o Transmission
AnnounceURL
udp://tracker.coppersurfer.tk:6969/announce
Hash c65e9c69e7c3682cf5e7fbf13ed16b996c0615b2
Peers seeds: 73 , leech: 13
Size 1.91 GB
Completato 1942x
Aggiunto 28.06.18 - 18:06:01
Uploader   robbyrs
Votazione (Voti: 0)


Condividi questo bittorrent:


html/blog:


bbcode/forum:




Aggiungi Commento
Ultimi commenti
 robimares59robimares59   
Grazie mille!!
29/06 21.08
  
grazie
29/06 12.49
Tutti commenti (2)