Neu im FXP Bereich | Four Seasons in Havana (6) | Resident Evil: Venganza - 2012
 * Dettagli Torrent   globale  | Commenti (0) 


- Cest la vie - Prendila come viene (2017).720p.H264.italian.french.Ac3-5.1.sub.NUita.MIRCrew -


Download via torrent:
Categoria bittorrent BDRip
Descrizione
C'est la vie - Prendila come viene (2017).720p.H264.italian.french.Ac3-5.1.sub.NUita.MIRCrew


NO FOUND ONLY ORIGINAL RELEASE



My release is always in double track audio italian and Original audio
for select it use VLC or dvd player home
not use wmp

C'est la vie - Prendila come viene

(2017)

Quality MIRCrew on HD 720p da  2,0 gb








GENERE: Commedia
ANNO: 2017
REGIA: Olivier Nakache, Eric Toledano
PAESE: Francia
DURATA: 115 Min



Jean-Pierre Bacri, Gilles Lellouche, Jean-Paul Rouve, Vincent Macaigne, Suzanne Clément, Hélène Vincent, Benjamin Lavernhe, Eye Haidara



Tra catastrofiche gaffes e imprevedibili eventi, una scombinata impresa di catering tenta di regalare una giornata indimenticabile a una coppia di giovani sposi.



A hectic wedding party held in an 17th century French palace comes together with the help of the behind-the-scenes staff.  











[spoiler]
General
Unique ID                                : 319375245073086885205637720142245029897 (0xF0456F4EEFC557F7FE4E58F658D46809)
Complete name                            : Prendila come viene - C'est la vie (2017).720p.h264.ita.fre.sub.ita.NUita-MIRCrew\Prendila come viene - C'est la vie (2017).720p.h264.ita.fre.sub.ita-MIRCrew.mkv
Format                                   : Matroska
Format version                           : Version 2
File size                                : 1.94 GiB
Duration                                 : 1h 55mn
Overall bit rate                         : 2 394 Kbps
Encoded date                             : UTC 2018-06-14T08:57:43Z
Writing application                      : HandBrake 0.10.5 2016021100
Writing library                          : Lavf55.12.0

Video
ID                                       : 1
Format                                   : AVC
Format/Info                              : Advanced Video Codec
Format profile                           : [email protected]
Format settings, CABAC                   : Yes
Format settings, ReFrames                : 4 frames
Codec ID                                 : V_MPEG4/ISO/AVC
Duration                                 : 1h 55mn
Bit rate                                 : 1 800 Kbps
Width                                    : 1 280 pixels
Height                                   : 688 pixels
Display aspect ratio                     : 1.860
Frame rate mode                          : Variable
Frame rate                               : 24.000 fps
Color space                              : YUV
Chroma subsampling                       : 4:2:0
Bit depth                                : 8 bits
Scan type                                : Progressive
Bits/(Pixel*Frame)                       : 0.085
Stream size                              : 1.41 GiB (73%)
Writing library                          : x264 core 142 r2479 dd79a61
Encoding settings                        : cabac=1 / ref=3 / deblock=1:0:0 / analyse=0x3:0x113 / me=hex / subme=7 / psy=1 / psy_rd=1.00:0.00 / mixed_ref=1 / me_range=16 / chroma_me=1 / trellis=1 / 8x8dct=1 / cqm=0 / deadzone=21,11 / fast_pskip=1 / chroma_qp_offset=-2 / threads=3 / lookahead_threads=1 / sliced_threads=0 / nr=0 / decimate=1 / interlaced=0 / bluray_compat=0 / constrained_intra=0 / bframes=3 / b_pyramid=2 / b_adapt=1 / b_bias=0 / direct=1 / weightb=1 / open_gop=0 / weightp=2 / keyint=240 / keyint_min=24 / scenecut=40 / intra_refresh=0 / rc_lookahead=40 / rc=abr / mbtree=1 / bitrate=1800 / ratetol=1.0 / qcomp=0.60 / qpmin=0 / qpmax=69 / qpstep=4 / vbv_maxrate=62500 / vbv_bufsize=78125 / nal_hrd=none / filler=0 / ip_ratio=1.40 / aq=1:1.00
Default                                  : Yes
Forced                                   : No
Color primaries                          : BT.709-5, BT.1361, IEC 61966-2-4, SMPTE RP177
Transfer characteristics                 : BT.709-5, BT.1361
Matrix coefficients                      : BT.709-5, BT.1361, IEC 61966-2-4 709, SMPTE RP177

Audio #1
ID                                       : 2
Format                                   : AC-3
Format/Info                              : Audio Coding 3
Mode extension                           : CM (complete main)
Codec ID                                 : A_AC3
Duration                                 : 1h 55mn
Bit rate mode                            : Constant
Bit rate                                 : 384 Kbps
Channel(s)                               : 6 channels
Channel positions                        : Front: L C R, Side: L R, LFE
Sampling rate                            : 48.0 KHz
Bit depth                                : 16 bits
Compression mode                         : Lossy
Delay relative to video                  : 1mn 5s
Stream size                              : 318 MiB (16%)
Title                                    : Surround
Language                                 : Italian
Default                                  : Yes
Forced                                   : No

Audio #2
ID                                       : 3
Format                                   : AC-3
Format/Info                              : Audio Coding 3
Mode extension                           : CM (complete main)
Codec ID                                 : A_AC3
Duration                                 : 1h 55mn
Bit rate mode                            : Constant
Bit rate                                 : 224 Kbps
Channel(s)                               : 6 channels
Channel positions                        : Front: L C R, Side: L R, LFE
Sampling rate                            : 48.0 KHz
Bit depth                                : 16 bits
Compression mode                         : Lossy
Delay relative to video                  : 1mn 5s
Stream size                              : 185 MiB (9%)
Title                                    : Surround
Language                                 : French
Default                                  : No
Forced                                   : No

Menu
00:00:00.000                             : 01)00:00:00:000
00:07:25.541                             : 02)00:07:25:458
00:23:11.916                             : 03)00:23:11:833
00:33:00.083                             : 04)00:33:00:000
00:43:50.208                             : 05)00:43:50:125
00:54:59.208                             : 06)00:54:59:083
01:04:59.541                             : 07)01:04:59:458
01:15:16.541                             : 001:15:16:458
01:22:02.375                             : 09)01:22:02:291
01:30:05.500                             : 10)01:30:05:416
01:38:25.500                             : 11)01:38:25:416
01:50:54.208                             : 12)01:50:54:125


[/spoiler]



Info: Per scaricare devi usare un client come uTorrent o Transmission
AnnounceURL
udp://tracker.coppersurfer.tk:6969/announce
Hash 310e3fe1552f4756abcfd2b02f94420d0aab675c
Peers seeds: 55 , leech: 18
Size 1.94 GB
Completato 1663x
Aggiunto 27.06.18 - 15:06:17
Uploader   robbyrs
Votazione (Voti: 1)


Condividi questo bittorrent:


html/blog:


bbcode/forum:




Aggiungi Commento