Sylvester Stallone | Les Aventures de Gamba TELECHARGEMENT GRATUIT | Pierre Niney
 * Dettagli Torrent   globale  | Commenti (0) 


- I 13 Spettri (2001).720p.H264.italian.english.Ac3-5.1.MIRCrew -


Download via torrent:
Categoria bittorrent BDRip
Descrizione
Thir13en Ghosts - I 13 Spettri (2001).720p.H264.italian.english.Ac3-5.1.MIRCrew


NO FOUND ONLY ORIGINAL RELEASE



My release is always in double track audio italian and Original audio
for select it use VLC or dvd player home
not use wmp

I 13 Spettri

Thir13en Ghosts


(2001)

Quality MIRCrew on HD 720p da  1,7 gb








Titolo originale Thir13en ghosts
Paese di produzione Stati Uniti d'America
Anno 2001
Durata 91 min
Genere horror
Regia Steve Beck
Soggetto Robb White, Neal Marshall Stevens
Sceneggiatura Richard D'Ovidio, Neal Stevens
Produttore Gilbert Adler, Joel Silver, Robert Zemeckis
Fotografia Gale Shore
Montaggio Derek Shore, Scott Ayers, Edward Shore
Effetti speciali Charles Belardinelli, Orry Kelly, Joseph Cinesite



   Tony Shalhoub: Arthur Kriticos
   F. Murray Abraham: Cyrus Kriticos
   Matthew Lillard: Dennis Rafkin
   Embeth Davidtz: Kalina Oretzia
   Shannon Elizabeth: Kathy Kriticos
   Alec Roberts: Robert "Bobby" Kriticos
   JR Bourne: Benjamin Moss
   Rah Digga: Maggie Bess
   Matthew Harrison: Damon
   Jacob Rupp: Assistente di Cyrus



In seguito ad un incendio che ha distrutto la casa e causato la morte di sua moglie, Arthur Kriticos, i suoi due bambini Kathy e Bobby, e la baby-sitter Maggie stanno lottando per sbarcare il lunario. Con un colpo di fortuna, Arthur eredita un'imponente villa da suo zio Cyrus. La casa è costituita da pareti di vetro mobili su cui sono scritte frasi in latino. e.....................



When Cyrus Kriticos, a very rich collector of unique things dies, he leaves it all to his nephew and his family. All including his house, his fortune, and his malicious collection of ghosts!









[spoiler]
General
Unique ID                                : 109059828790277182421734433637049160735 (0x520C28B43435CD8DAC42EB77219DD41F)
Complete name                            : I 13 Spettri - Thir13en Ghosts (2001).720p.ita.eng-MIRCrew\I 13 Spettri - Thir13en Ghosts (2001).720p.ita.eng-MIRCrew.mkv
Format                                   : Matroska
Format version                           : Version 2
File size                                : 1.73 GiB
Duration                                 : 1h 30mn
Overall bit rate                         : 2 734 Kbps
Movie name                               : MIRCrew
Encoded date                             : UTC 2018-06-23 11:11:09
Writing application                      : Lavf54.63.100
Writing library                          : Lavf54.63.100

Video
ID                                       : 1
Format                                   : AVC
Format/Info                              : Advanced Video Codec
Format profile                           : [email protected]
Format settings, CABAC                   : Yes
Format settings, ReFrames                : 2 frames
Codec ID                                 : V_MPEG4/ISO/AVC
Duration                                 : 1h 30mn
Bit rate                                 : 1 783 Kbps
Nominal bit rate                         : 1 900 Kbps
Width                                    : 1 264 pixels
Height                                   : 688 pixels
Display aspect ratio                     : 16:9
Frame rate mode                          : Variable
Frame rate                               : 25.000 fps
Color space                              : YUV
Chroma subsampling                       : 4:2:0
Bit depth                                : 8 bits
Scan type                                : Progressive
Bits/(Pixel*Frame)                       : 0.082
Stream size                              : 1.13 GiB (65%)
Writing library                          : x264 core 130 r2273
Encoding settings                        : cabac=1 / ref=2 / deblock=1:0:0 / analyse=0x1:0x131 / me=hex / subme=7 / psy=1 / psy_rd=1.00:0.00 / mixed_ref=0 / me_range=16 / chroma_me=1 / trellis=1 / 8x8dct=0 / cqm=0 / deadzone=21,11 / fast_pskip=1 / chroma_qp_offset=-2 / threads=3 / lookahead_threads=1 / sliced_threads=0 / nr=0 / decimate=1 / interlaced=0 / bluray_compat=0 / constrained_intra=0 / bframes=3 / b_pyramid=0 / b_adapt=1 / b_bias=0 / direct=3 / weightb=1 / open_gop=0 / weightp=2 / keyint=250 / keyint_min=25 / scenecut=40 / intra_refresh=0 / rc_lookahead=40 / rc=abr / mbtree=1 / bitrate=1900 / ratetol=1.0 / qcomp=0.60 / qpmin=10 / qpmax=69 / qpstep=4 / vbv_maxrate=24000 / vbv_bufsize=24000 / nal_hrd=none / ip_ratio=1.40 / aq=1:1.00
Language                                 : Italian
Default                                  : Yes
Forced                                   : No

Audio #1
ID                                       : 2
Format                                   : AC-3
Format/Info                              : Audio Coding 3
Mode extension                           : CM (complete main)
Codec ID                                 : A_AC3
Duration                                 : 1h 30mn
Bit rate mode                            : Constant
Bit rate                                 : 448 Kbps
Channel(s)                               : 6 channels
Channel positions                        : Front: L C R, Side: L R, LFE
Sampling rate                            : 48.0 KHz
Bit depth                                : 16 bits
Compression mode                         : Lossy
Delay relative to video                  : 1mn 5s
Stream size                              : 291 MiB (16%)
Language                                 : Italian
Default                                  : Yes
Forced                                   : No

Audio #2
ID                                       : 3
Format                                   : AC-3
Format/Info                              : Audio Coding 3
Mode extension                           : CM (complete main)
Codec ID                                 : A_AC3
Duration                                 : 1h 30mn
Bit rate mode                            : Constant
Bit rate                                 : 448 Kbps
Channel(s)                               : 6 channels
Channel positions                        : Front: L C R, Side: L R, LFE
Sampling rate                            : 48.0 KHz
Bit depth                                : 16 bits
Compression mode                         : Lossy
Delay relative to video                  : 1mn 5s
Stream size                              : 291 MiB (16%)
Language                                 : English
Default                                  : No
Forced                                   : No


[/spoiler]



Info: Per scaricare devi usare un client come uTorrent o Transmission
AnnounceURL
udp://tracker.coppersurfer.tk:6969/announce
Hash 4cd56bc08bde4f0067f9c480d248bd8659471dc0
Peers seeds: 46 , leech: 13
Size 1.73 GB
Completato 1255x
Aggiunto 26.06.18 - 19:06:47
Uploader   robbyrs
Votazione (Voti: 1)


Condividi questo bittorrent:


html/blog:


bbcode/forum:




Aggiungi Commento