Koro-sensei Quest! | Red Cockroaches (2003) | Share on Google+
 * Dettagli Torrent   globale  | Commenti (0) 


- Made in Italy (2018).H264.italian.Ac3-5.1.sub.NUita.eng.MIRCrew -


Download via torrent:
Categoria bittorrent BDRip
Descrizione
Made in Italy 2018.H264.italian.Ac3-5.1.sub.NUita.eng.MIRCrew


NO FOUND ONLY ORIGINAL RELEASE




My release is always in double track audio italian and Original audio
for select it use VLC or dvd player home
not use wmp

ENGLISH SUBTITLE INSIDE

PRESENTI ANCHE I SOTTOTITOLI ITALIANI PER NON UDENTI


Made in Italy

2018








GENERE: Drammatico
ANNO: 2018
REGIA: Luciano Ligabue
PAESE: Italia
DURATA: 104 Min



Stefano Accorsi, Kasia Smutniak, Fausto Sciarappa, Walter Leonardi, Filippo Dini, Tobia De Angelis, Alessia Giuliani, Gianluca Gobbi



Un uomo di specchiate virtù e comprovata sfortuna: incastrato in un lavoro che non ha scelto, a malapena in grado di mantenere la casa di famiglia. Può contare però su un variegato gruppo di amici, su una moglie che, tra alti e bassi, ama da sempre, e un figlio ambizioso che frequenta l'università.



Riko works in a cured meats factory, like his father, surrounded by more pigs than people. The real, everyday love he shares with Sarah, is in predicament. While Riko's unhappy with his job... .











[spoiler]
General
Unique ID                                : 186989947794764831584672252424157055418 (0x8CACF437C0F43D661FF3E408EEC6C9BA)
Complete name                            : Made in Italy 2018.H264.ita.sub.NUita.eng-MIRCrew\Made in Italy 2018.H264.ita.sub.NUita.eng-MIRCrew.mkv
Format                                   : Matroska
Format version                           : Version 2
File size                                : 1.20 GiB
Duration                                 : 1h 38mn
Overall bit rate                         : 1 756 Kbps
Movie name                               : MIRCrew
Encoded date                             : UTC 2018-06-22 10:40:55
Writing application                      : Lavf54.63.100
Writing library                          : Lavf54.63.100

Video
ID                                       : 1
Format                                   : AVC
Format/Info                              : Advanced Video Codec
Format profile                           : [email protected]
Format settings, CABAC                   : Yes
Format settings, ReFrames                : 2 frames
Codec ID                                 : V_MPEG4/ISO/AVC
Duration                                 : 1h 38mn
Bit rate                                 : 1 300 Kbps
Width                                    : 720 pixels
Height                                   : 384 pixels
Display aspect ratio                     : 1.854
Original display aspect ratio            : 1.853
Frame rate mode                          : Variable
Frame rate                               : 25.000 fps
Color space                              : YUV
Chroma subsampling                       : 4:2:0
Bit depth                                : 8 bits
Scan type                                : Progressive
Bits/(Pixel*Frame)                       : 0.188
Stream size                              : 893 MiB (73%)
Writing library                          : x264 core 130 r2273
Encoding settings                        : cabac=1 / ref=2 / deblock=1:0:0 / analyse=0x1:0x131 / me=hex / subme=7 / psy=1 / psy_rd=1.00:0.00 / mixed_ref=0 / me_range=16 / chroma_me=1 / trellis=1 / 8x8dct=0 / cqm=0 / deadzone=21,11 / fast_pskip=1 / chroma_qp_offset=-2 / threads=3 / lookahead_threads=1 / sliced_threads=0 / nr=0 / decimate=1 / interlaced=0 / bluray_compat=0 / constrained_intra=0 / bframes=3 / b_pyramid=0 / b_adapt=1 / b_bias=0 / direct=3 / weightb=1 / open_gop=0 / weightp=2 / keyint=250 / keyint_min=25 / scenecut=40 / intra_refresh=0 / rc_lookahead=40 / rc=abr / mbtree=1 / bitrate=1300 / ratetol=1.0 / qcomp=0.60 / qpmin=10 / qpmax=69 / qpstep=4 / vbv_maxrate=24000 / vbv_bufsize=24000 / nal_hrd=none / ip_ratio=1.40 / aq=1:1.00
Language                                 : Italian
Default                                  : Yes
Forced                                   : No
DURATION                                 : 01:38:00.040000000
NUMBER_OF_FRAMES                         : 147001
NUMBER_OF_BYTES                          : 7259679448
_STATISTICS_WRITING_APP                  : mkvmerge v15.0.0 ('Duel with the Devil') 64-bit
_STATISTICS_WRITING_DATE_UTC             : 2018-05-09 20:08:21
_STATISTICS_TAGS                         : BPS DURATION NUMBER_OF_FRAMES NUMBER_OF_BYTES

Audio
ID                                       : 2
Format                                   : AC-3
Format/Info                              : Audio Coding 3
Mode extension                           : CM (complete main)
Codec ID                                 : A_AC3
Duration                                 : 1h 38mn
Bit rate mode                            : Constant
Bit rate                                 : 448 Kbps
Channel(s)                               : 6 channels
Channel positions                        : Front: L C R, Side: L R, LFE
Sampling rate                            : 48.0 KHz
Bit depth                                : 16 bits
Compression mode                         : Lossy
Delay relative to video                  : 1mn 5s
Stream size                              : 314 MiB (26%)
Language                                 : Italian
Default                                  : No
Forced                                   : No
DURATION                                 : 01:38:00.096000000
NUMBER_OF_FRAMES                         : 183753
NUMBER_OF_BYTES                          : 470407680
_STATISTICS_WRITING_APP                  : mkvmerge v15.0.0 ('Duel with the Devil') 64-bit
_STATISTICS_WRITING_DATE_UTC             : 2018-05-09 20:08:21
_STATISTICS_TAGS                         : BPS DURATION NUMBER_OF_FRAMES NUMBER_OF_BYTES

Menu
00:00:00.000                             : :00:00:00.000
00:07:44.520                             : :00:07:44.520
00:17:30.360                             : :00:17:30.360
00:25:35.040                             : :00:25:35.040
00:31:48.000                             : :00:31:48.000
00:40:39.280                             : :00:40:39.280
00:48:22.960                             : :00:48:22.960
00:55:53.880                             : :00:55:53.880
01:05:53.440                             : :01:05:53.440
01:12:53.240                             : :01:12:53.240
01:21:43.920                             : :01:21:43.920
01:29:07.160                             : :01:29:07.160



[/spoiler]



Info: Per scaricare devi usare un client come uTorrent o Transmission
AnnounceURL
udp://tracker.coppersurfer.tk:6969/announce
Hash f9399be5214758f64bc30b2455834272b792569e
Peers seeds: 108 , leech: 17
Size 1.20 GB
Completato 3709x
Aggiunto 23.06.18 - 17:06:11
Uploader   robbyrs
Votazione (Voti: 1)


Condividi questo bittorrent:


html/blog:


bbcode/forum:




Aggiungi Commento