Vue sur vido Facebook | Castle Rock - Season 1 - Episode 9 September 6, 2018 | Atelier Escha & Logy: Alchemists of the Dusk Sky
 * Dettagli Torrent   globale  | Commenti (2) 


- Acts Of Vengeance (2017).720p.H264.italian.english.Ac3-5.1.sub.ita.MIRCrew -


Download via torrent:
Categoria bittorrent BDRip
Descrizione
Acts Of Vengeance (2017).720p.H264.italian.english.Ac3-5.1.sub.ita.MIRCrew



NO FOUND ONLY ORIGINAL RELEASE



My release is always in double track audio italian and Original audio
for select it use VLC or dvd player home
not use wmp

Acts Of Vengeance

(2017)

Quality MIRCrew on HD 720p da  1,7 gb









Titolo Originale: Act of Vengeance
Regia: Isaac Florentine
Anno 2017





Antonio Banderas (Frank Valera)
Paz Vega (Sheila)
Karl Urban (Strode)



In Acts of Vengeance Frank Valera è un uomo di successo, ha un brillante lavoro come avvocato difensore e una splendida famiglia. I costanti impegni burocratici però lo portano spesso a trascurare proprio i propri affetti.....................



A fast-talking lawyer transforms his body and takes a vow of silence, not to be broken until he finds out who killed his wife and daughter and has his revenge.

















[spoiler]
General
Unique ID                                : 219387217828050444721794936328878266754 (0xA50C70F3FEFF47D5A6924B4FBDFB9982)
Complete name                            : Acts Of Vengeance (2017).720p.h264.ita.eng.sub.ita-MIRCrew\Acts Of Vengeance (2017).720p.h264.ita.eng.sub.ita-MIRCrew.mkv
Format                                   : Matroska
Format version                           : Version 2
File size                                : 1.68 GiB
Duration                                 : 1h 26mn
Overall bit rate                         : 2 777 Kbps
Movie name                               : MIRCrew
Encoded date                             : UTC 2018-06-21 15:40:30
Writing application                      : mkvmerge v5.4.0 ('Piper') built on Mar 10 2012 13:34:39
Writing library                          : Lavf54.63.100
COPYRIGHT                                : robbyrs.altervista.org

Video
ID                                       : 1
Format                                   : AVC
Format/Info                              : Advanced Video Codec
Format profile                           : [email protected]
Format settings, CABAC                   : Yes
Format settings, ReFrames                : 2 frames
Codec ID                                 : V_MPEG4/ISO/AVC
Duration                                 : 1h 26mn
Bit rate                                 : 1 900 Kbps
Width                                    : 1 280 pixels
Height                                   : 688 pixels
Display aspect ratio                     : 16:9
Frame rate mode                          : Variable
Frame rate                               : 24.000 fps
Color space                              : YUV
Chroma subsampling                       : 4:2:0
Bit depth                                : 8 bits
Scan type                                : Progressive
Bits/(Pixel*Frame)                       : 0.090
Stream size                              : 1.10 GiB (66%)
Writing library                          : x264 core 130 r2273
Encoding settings                        : cabac=1 / ref=2 / deblock=1:0:0 / analyse=0x1:0x131 / me=hex / subme=7 / psy=1 / psy_rd=1.00:0.00 / mixed_ref=0 / me_range=16 / chroma_me=1 / trellis=1 / 8x8dct=0 / cqm=0 / deadzone=21,11 / fast_pskip=1 / chroma_qp_offset=-2 / threads=3 / lookahead_threads=1 / sliced_threads=0 / nr=0 / decimate=1 / interlaced=0 / bluray_compat=0 / constrained_intra=0 / bframes=3 / b_pyramid=0 / b_adapt=1 / b_bias=0 / direct=3 / weightb=1 / open_gop=0 / weightp=2 / keyint=240 / keyint_min=24 / scenecut=40 / intra_refresh=0 / rc_lookahead=40 / rc=abr / mbtree=1 / bitrate=1900 / ratetol=1.0 / qcomp=0.60 / qpmin=10 / qpmax=69 / qpstep=4 / vbv_maxrate=24000 / vbv_bufsize=24000 / nal_hrd=none / ip_ratio=1.40 / aq=1:1.00
Language                                 : Italian
Default                                  : Yes
Forced                                   : No
DURATION                                 : 01:26:32.667000000
NUMBER_OF_FRAMES                         : 124624
NUMBER_OF_BYTES                          : 6004426514
_STATISTICS_WRITING_APP                  : mkvmerge v9.7.1 ('Pandemonium') 64bit
_STATISTICS_WRITING_DATE_UTC             : 2018-06-11 10:08:38
_STATISTICS_TAGS                         : BPS DURATION NUMBER_OF_FRAMES NUMBER_OF_BYTES

Audio #1
ID                                       : 2
Format                                   : AC-3
Format/Info                              : Audio Coding 3
Mode extension                           : CM (complete main)
Codec ID                                 : A_AC3
Duration                                 : 1h 26mn
Bit rate mode                            : Constant
Bit rate                                 : 448 Kbps
Channel(s)                               : 6 channels
Channel positions                        : Front: L C R, Side: L R, LFE
Sampling rate                            : 48.0 KHz
Bit depth                                : 16 bits
Compression mode                         : Lossy
Delay relative to video                  : -5ms
Stream size                              : 277 MiB (16%)
Title                                    : Ita Ac3 5.1
Language                                 : Italian
Default                                  : Yes
Forced                                   : No
DURATION                                 : 01:26:33.056000000
NUMBER_OF_FRAMES                         : 162283
NUMBER_OF_BYTES                          : 415444480
_STATISTICS_WRITING_APP                  : mkvmerge v9.7.1 ('Pandemonium') 64bit
_STATISTICS_WRITING_DATE_UTC             : 2018-06-11 10:08:38
_STATISTICS_TAGS                         : BPS DURATION NUMBER_OF_FRAMES NUMBER_OF_BYTES

Audio #2
ID                                       : 3
Format                                   : AC-3
Format/Info                              : Audio Coding 3
Mode extension                           : CM (complete main)
Codec ID                                 : A_AC3
Duration                                 : 1h 26mn
Bit rate mode                            : Constant
Bit rate                                 : 448 Kbps
Channel(s)                               : 6 channels
Channel positions                        : Front: L C R, Side: L R, LFE
Sampling rate                            : 48.0 KHz
Bit depth                                : 16 bits
Compression mode                         : Lossy
Delay relative to video                  : -5ms
Stream size                              : 277 MiB (16%)
Title                                    : Eng Ac3 5.1
Language                                 : English
Default                                  : No
Forced                                   : No
DURATION                                 : 01:26:33.110000000
NUMBER_OF_FRAMES                         : 486854
NUMBER_OF_BYTES                          : 979550316
_STATISTICS_WRITING_APP                  : mkvmerge v9.7.1 ('Pandemonium') 64bit
_STATISTICS_WRITING_DATE_UTC             : 2018-06-11 10:08:38
_STATISTICS_TAGS                         : BPS DURATION NUMBER_OF_FRAMES NUMBER_OF_BYTES

Menu
00:00:00.000                             : 01)00:00:00:000
00:07:37.416                             : 02)00:07:37:416
00:15:13.625                             : 03)00:15:13:625
00:21:23.500                             : 04)00:21:23:500
00:28:26.666                             : 05)00:28:26:666
00:38:32.291                             : 06)00:38:32:291
00:45:58.250                             : 07)00:45:58:250
00:53:59.375                             : 000:53:59:375
01:00:03.750                             : 09)01:00:03:750
01:07:07.291                             : 10)01:07:07:291
01:13:47.041                             : 11)01:13:47:041
01:23:12.625                             : 12)01:23:12:625


[/spoiler]



Info: Per scaricare devi usare un client come uTorrent o Transmission
AnnounceURL
udp://tracker.coppersurfer.tk:6969/announce
Hash 099d105d1855110f51d1da73fb61144b88ee3e99
Peers seeds: 139 , leech: 12
Size 1.68 GB
Completato 3666x
Aggiunto 22.06.18 - 18:06:02
Uploader   robbyrs
Votazione (Voti: 2)


Condividi questo bittorrent:


html/blog:


bbcode/forum:




Aggiungi Commento
Ultimi commenti
  
Perfetto grazie!
08/07 01.51
 jackal98jackal98   
Grazie
23/06 12.33
Tutti commenti (2)