Link removal policy (DMCA) | Télécharger Part 4 | Nourin (No-Rin) | 480p | BDRip | Dual Audio
 * Dettagli Torrent   globale  | Commenti (2) 


- A casa tutti bene (2018).720p.H264.italian.Ac3-5.1.sub.ita.MIRCrew -


Download via torrent:
Categoria bittorrent BDRip
Descrizione
A casa tutti bene 2018.720p.H264.italian.Ac3-5.1.sub.ita.MIRCrew


NO FOUND ONLY ORIGINAL RELEASE



My release is always in double track audio italian and Original audio
for select it use VLC or dvd player home
not use wmp

SOTTOTITOLI PER NON UDENTI INCLUSI


A casa tutti bene

2018

Quality MIRCrew on HD 720p da  1,6 gb








GENERE: Commedia, Drammatico
ANNO: 2018
REGIA: Gabriele Muccino
PAESE: Italia
DURATA: 105 Min



Stefano Accorsi, Carolina Crescentini, Elena Cucci, Tea Falco, Pierfrancesco Favino, Claudia Gerini, Massimo Ghini, Sabrina Impacciatore, Gianfelice Imparato, Ivano Marescotti, Giulia Michelini, Sandra Milo, Giampaolo Morelli, Stefania Sandrelli, Valeria Solarino, Gianmarco Tognazzi, Christian Marconcini, Elena Minichiello, Renato Raimondi, Elena Rapisarda, Elisa Visari



Sbarcati sull'isola dove la coppia di pensionati si è trasferita a vivere, figli e nipoti si ritrovano bloccati sull'isola a causa di un'improvvisa mareggiata che impedisce ai traghetti di raggiungere la costa. Il nutrito nucleo/cast composto tra gli altri da Pierfrancesco Favino, Stefano Accorsi e Carolina Crescentini, sarà costretto a fermarsi più a lungo del previsto sull'isoletta e..................................



A big family that like any other one includes relatives that see each other often and others that rarely meet, reunite to celebrate the 50th wedding anniversary of grandma Alba and grandpa ...









[spoiler]
General
Unique ID                                : 131298792981008143101291066066413429088 (0x62C73A4AF77F7C839C5275D00C922160)
Complete name                            : A casa tutti bene 2018.720p.ita.sub.NUita-MIRCrew\A casa tutti bene 2018.720p.ita.sub.NUita-MIRCrew.mkv
Format                                   : Matroska
Format version                           : Version 2
File size                                : 1.67 GiB
Duration                                 : 1h 47mn
Overall bit rate                         : 2 230 Kbps
Movie name                               : MIRCrew
Encoded date                             : UTC 2018-06-18 21:45:09
Writing application                      : Lavf54.63.100
Writing library                          : Lavf54.63.100

Video
ID                                       : 1
Format                                   : AVC
Format/Info                              : Advanced Video Codec
Format profile                           : [email protected]
Format settings, CABAC                   : Yes
Format settings, ReFrames                : 2 frames
Codec ID                                 : V_MPEG4/ISO/AVC
Duration                                 : 1h 47mn
Bit rate                                 : 1 800 Kbps
Width                                    : 1 264 pixels
Height                                   : 528 pixels
Display aspect ratio                     : 2.40:1
Frame rate mode                          : Variable
Frame rate                               : 24.000 fps
Color space                              : YUV
Chroma subsampling                       : 4:2:0
Bit depth                                : 8 bits
Scan type                                : Progressive
Bits/(Pixel*Frame)                       : 0.112
Stream size                              : 1.30 GiB (78%)
Writing library                          : x264 core 130 r2273
Encoding settings                        : cabac=1 / ref=2 / deblock=1:0:0 / analyse=0x1:0x131 / me=hex / subme=7 / psy=1 / psy_rd=1.00:0.00 / mixed_ref=0 / me_range=16 / chroma_me=1 / trellis=1 / 8x8dct=0 / cqm=0 / deadzone=21,11 / fast_pskip=1 / chroma_qp_offset=-2 / threads=3 / lookahead_threads=1 / sliced_threads=0 / nr=0 / decimate=1 / interlaced=0 / bluray_compat=0 / constrained_intra=0 / bframes=3 / b_pyramid=0 / b_adapt=1 / b_bias=0 / direct=3 / weightb=1 / open_gop=0 / weightp=2 / keyint=240 / keyint_min=24 / scenecut=40 / intra_refresh=0 / rc_lookahead=40 / rc=abr / mbtree=1 / bitrate=1800 / ratetol=1.0 / qcomp=0.60 / qpmin=10 / qpmax=69 / qpstep=4 / vbv_maxrate=24000 / vbv_bufsize=24000 / nal_hrd=none / ip_ratio=1.40 / aq=1:1.00
Language                                 : Italian
Default                                  : Yes
Forced                                   : No
DURATION                                 : 01:47:29.334000000
NUMBER_OF_FRAMES                         : 154784
NUMBER_OF_BYTES                          : 8020295997
_STATISTICS_WRITING_APP                  : mkvmerge v9.5.0 ('Quiet Fire') 64bit
_STATISTICS_WRITING_DATE_UTC             : 2018-06-03 14:29:45
_STATISTICS_TAGS                         : BPS DURATION NUMBER_OF_FRAMES NUMBER_OF_BYTES

Audio
ID                                       : 2
Format                                   : AC-3
Format/Info                              : Audio Coding 3
Mode extension                           : CM (complete main)
Codec ID                                 : A_AC3
Duration                                 : 1h 47mn
Bit rate mode                            : Constant
Bit rate                                 : 448 Kbps
Channel(s)                               : 6 channels
Channel positions                        : Front: L C R, Side: L R, LFE
Sampling rate                            : 48.0 KHz
Bit depth                                : 16 bits
Compression mode                         : Lossy
Delay relative to video                  : 1mn 5s
Stream size                              : 344 MiB (20%)
Title                                    : AC3 ITA
Language                                 : Italian
Default                                  : No
Forced                                   : No
DURATION                                 : 01:47:29.344000000
NUMBER_OF_FRAMES                         : 201542
NUMBER_OF_BYTES                          : 515947520
_STATISTICS_WRITING_APP                  : mkvmerge v9.5.0 ('Quiet Fire') 64bit
_STATISTICS_WRITING_DATE_UTC             : 2018-06-03 14:29:45
_STATISTICS_TAGS                         : BPS DURATION NUMBER_OF_FRAMES NUMBER_OF_BYTES

Menu
00:00:00.000                             : :00:00:00.000
00:07:05.342                             : :00:07:05.342
00:14:28.201                             : :00:14:28.201
00:20:13.838                             : :00:20:13.838
00:29:27.099                             : :00:29:27.099
00:39:02.590                             : :00:39:02.590
00:50:56.804                             : :00:50:56.804
00:59:52.756                             : :00:59:52.756
01:08:53.129                             : :01:08:53.129
01:16:19.950                             : :01:16:19.950
01:25:27.706                             : :01:25:27.706
01:35:23.259                             : :01:35:23.259
01:42:10.200                             : :01:42:10:200


[/spoiler]



Info: Per scaricare devi usare un client come uTorrent o Transmission
AnnounceURL
udp://tracker.coppersurfer.tk:6969/announce
Hash c8d5d48222393202def6cd4a1635408d891df058
Peers seeds: 251 , leech: 41
Size 1.67 GB
Completato 6479x
Aggiunto 22.06.18 - 16:06:25
Uploader   robbyrs
Votazione (Voti: 2)


Condividi questo bittorrent:


html/blog:


bbcode/forum:




Aggiungi Commento
Ultimi commenti
  
Perfetto come sempre grazie!
01/07 16.48
  
Grazie mille!
Bellissimo!
27/06 17.31
Tutti commenti (2)