Precious Cargo 2016 Movie Free Download HD | Bernard (5) | Ts Screener
 * Dettagli Torrent   globale  | Commenti (1) 


- Non e un paese per vecchi (2007).720p.H264.italian.english.Ac3-5.1.sub.ita.MIRCrew -


Download via torrent:
Categoria bittorrent BDRip
Descrizione
No country for old man - Non e' un paese per vecchi (2007).720p.H264.italian.english.Ac3-5.1.sub.ita.MIRCrew


NO FOUND ONLY ORIGINAL RELEASE



My release is always in double track audio italian and Original audio
for select it use VLC or dvd player home
not use wmp

Non e' un paese per vecchi

No country for old man


(2007)

Quality MIRCrew on HD 720p da  2,3 gb








Titolo originale No Country for Old Men
Paese di produzione Stati Uniti d'America
Anno 2007
Durata 122 min
Genere western, thriller, noir
Regia Joel ed Ethan Coen
Soggetto dall'omonimo romanzo di Cormac McCarthy
Sceneggiatura Joel ed Ethan Coen



   Tommy Lee Jones: sceriffo Ed Tom Bell
   Javier Bardem: Anton Chigurh
   Josh Brolin: Llewelyn Moss
   Woody Harrelson: Carson Wells
   Kelly Macdonald: Carla Jean Moss
   Garret Dillahunt: Wendell
   Tess Harper: Loretta Bell
   Barry Corbin: Ellis
   Rodger Boyce: sceriffo di El Paso
   Stephen Root: uomo che assume Carson Wells
   Beth Grant: madre di Carla Jean Moss



Texas, 1980. Mentre è a caccia nei territori selvaggi al confine con il Messico, Llewelyn Moss, un saldatore texano reduce dalla guerra del Vietnam, si imbatte in quel che resta di un regolamento di conti tra bande locali per una partita di droga. In mezzo ai cadaveri e al disastro, Moss ritrova un'ingente somma di denaro abbandonata che, malgrado la sua onestà, non può fare a meno di portarsi a casa, con l'intento di assicurarsi un futuro migliore per sé e la giovane moglie, Carla Jean.



In rural Texas, welder and hunter Llewelyn Moss (Josh Brolin) discovers the remains of several drug runners who have all killed each other in an exchange gone violently wrong. Rather than report the discovery to the police, Moss decides to simply take the two million dollars present for himself. This puts the psychopathic killer, Anton Chigurh (Javier Bardem), on his trail as he dispassionately murders nearly every rival, bystander and even employer in his pursuit of his quarry and the money.










[spoiler]
General
Unique ID                                : 163057035016010430996405038335684284587 (0x7AABA483ED17FDB5DDF3CA1322B090AB)
Complete name                            : Non e' un paese per vecchi - No country for old man (2007).720p.h264.ita.eng.multisub-MIRCrew\Non e' un paese per vecchi - No country for old man (2007).720p.h264.ita.eng.multisub-MIRCrew.mkv
Format                                   : Matroska
Format version                           : Version 2
File size                                : 2.30 GiB
Duration                                 : 2h 2mn
Overall bit rate                         : 2 691 Kbps
Movie name                               : MIRCrew
Encoded date                             : UTC 2018-06-17 09:29:53
Writing application                      : Lavf54.63.100
Writing library                          : Lavf54.63.100

Video
ID                                       : 1
Format                                   : AVC
Format/Info                              : Advanced Video Codec
Format profile                           : [email protected]
Format settings, CABAC                   : Yes
Format settings, ReFrames                : 2 frames
Codec ID                                 : V_MPEG4/ISO/AVC
Duration                                 : 2h 2mn
Bit rate                                 : 1 800 Kbps
Width                                    : 1 280 pixels
Height                                   : 528 pixels
Display aspect ratio                     : 2.40:1
Frame rate mode                          : Variable
Frame rate                               : 23.976 fps
Color space                              : YUV
Chroma subsampling                       : 4:2:0
Bit depth                                : 8 bits
Scan type                                : Progressive
Bits/(Pixel*Frame)                       : 0.111
Stream size                              : 1.49 GiB (65%)
Writing library                          : x264 core 130 r2273
Encoding settings                        : cabac=1 / ref=2 / deblock=1:0:0 / analyse=0x1:0x131 / me=hex / subme=7 / psy=1 / psy_rd=1.00:0.00 / mixed_ref=0 / me_range=16 / chroma_me=1 / trellis=1 / 8x8dct=0 / cqm=0 / deadzone=21,11 / fast_pskip=1 / chroma_qp_offset=-2 / threads=3 / lookahead_threads=1 / sliced_threads=0 / nr=0 / decimate=1 / interlaced=0 / bluray_compat=0 / constrained_intra=0 / bframes=3 / b_pyramid=0 / b_adapt=1 / b_bias=0 / direct=3 / weightb=1 / open_gop=0 / weightp=2 / keyint=230 / keyint_min=23 / scenecut=40 / intra_refresh=0 / rc_lookahead=40 / rc=abr / mbtree=1 / bitrate=1800 / ratetol=1.0 / qcomp=0.60 / qpmin=10 / qpmax=69 / qpstep=4 / vbv_maxrate=24000 / vbv_bufsize=24000 / nal_hrd=none / ip_ratio=1.40 / aq=1:1.00
Language                                 : Italian
Default                                  : Yes
Forced                                   : No

Audio #1
ID                                       : 2
Format                                   : AC-3
Format/Info                              : Audio Coding 3
Mode extension                           : CM (complete main)
Codec ID                                 : A_AC3
Duration                                 : 2h 2mn
Bit rate mode                            : Constant
Bit rate                                 : 448 Kbps
Channel(s)                               : 6 channels
Channel positions                        : Front: L C R, Side: L R, LFE
Sampling rate                            : 48.0 KHz
Bit depth                                : 16 bits
Compression mode                         : Lossy
Delay relative to video                  : 1mn 5s
Stream size                              : 391 MiB (17%)
Title                                    : Ita Ac3 5.1
Language                                 : Italian
Default                                  : Yes
Forced                                   : No

Audio #2
ID                                       : 3
Format                                   : AC-3
Format/Info                              : Audio Coding 3
Mode extension                           : CM (complete main)
Codec ID                                 : A_AC3
Duration                                 : 2h 2mn
Bit rate mode                            : Constant
Bit rate                                 : 448 Kbps
Channel(s)                               : 6 channels
Channel positions                        : Front: L C R, Side: L R, LFE
Sampling rate                            : 48.0 KHz
Bit depth                                : 16 bits
Compression mode                         : Lossy
Delay relative to video                  : 1mn 5s
Stream size                              : 391 MiB (17%)
Title                                    : Eng Ac3 5.1
Language                                 : English
Default                                  : No
Forced                                   : No

Menu
00:00:00.000                             : :01
00:03:44.474                             : :02
00:13:41.904                             : :03
00:20:50.416                             : :04
00:27:52.838                             : :05
00:36:58.383                             : :06
00:41:52.427                             : :07
00:52:17.051                             : :08
01:04:59.312                             : :09
01:13:08.801                             : :10
01:20:05.801                             : :11
01:27:35.876                             : :12
01:34:35.128                             : :13
01:42:21.010                             : :14
01:47:22.645                             : :15
01:56:32.652                             : :16


[/spoiler]



Info: Per scaricare devi usare un client come uTorrent o Transmission
AnnounceURL
udp://tracker.coppersurfer.tk:6969/announce
Hash 1deabacaf3ee7ee3d5d445da985fd44bc9d0e0ec
Peers seeds: 19 , leech: 1
Size 2.30 GB
Completato 694x
Aggiunto 20.06.18 - 18:06:35
Uploader   robbyrs
Votazione (Voti: 2)


Condividi questo bittorrent:


html/blog:


bbcode/forum:




Aggiungi Commento
Ultimi commenti
  
Perfetto come sempre grazie!
01/07 16.32
Tutti commenti (1)