online education - 680 Words | Landline BLuRayRip | Castle - Season 1
 * Dettagli Torrent   globale  | Commenti (0) 


- Sherlock Gnomes (2018).720p.H264.italian.english.Ac3-5.1.sub.ita.eng.MIRCrew -


Download via torrent:
Categoria bittorrent BDRip
Descrizione
Gnomeo & Juliet: Sherlock Gnomes - Sherlock Gnomes 2018.720p.H264.italian.english.Ac3-5.1.sub.ita.eng.MIRCrew



NO FOUND ONLY ORIGINAL RELEASE



My release is always in double track audio italian and Original audio
for select it use VLC or dvd player home
not use wmp

Sherlock Gnomes

Gnomeo & Juliet: Sherlock Gnomes


2018

Quality MIRCrew on HD 720p da  1,6 gb








GENERE: Animazione, Commedia, Family, Fantasy, Sentimentale
ANNO: 2018
REGIA: John Stevenson
ATTORI: James McAvoy, Mary J. Blige, Michael Caine, Johnny Depp, Chiwetel Ejiofor, Emily Blunt
PAESE: USA, Gran Bretagna
DURATA: 86 Min



**********************************************



Una nuova divertentissima parodia letteraria prende forma in Gnomeo & Giulietta: Sherlock Gnomes, sequel dell'originale film d'animazione che rivisita in chiave comica e cartoon la tragedia shakespeariana.



Garden gnomes, Gnomeo & Juliet, recruit renowned detective Sherlock Gnomes to investigate the mysterious disappearance of other garden ornaments.









[spoiler]
General
Unique ID                                : 204845215863099556182134167109363719963 (0x9A1BC0E6A7C3DF5E952D93740DC25F1B)
Complete name                            : Sherlock Gnomes 2018.720p.h264.ita.eng.sub.ita.eng-MIRCrew\Sherlock Gnomes 2018.720p.h264.ita.eng.sub.ita.eng-MIRCrew.mkv
Format                                   : Matroska
Format version                           : Version 2
File size                                : 1.58 GiB
Duration                                 : 1h 26mn
Overall bit rate                         : 2 623 Kbps
Movie name                               : MIRCrew
Encoded date                             : UTC 2018-06-16 19:25:04
Writing application                      : mkvmerge v5.4.0 ('Piper') built on Mar 10 2012 13:34:39
Writing library                          : Lavf54.63.100

Video
ID                                       : 1
Format                                   : AVC
Format/Info                              : Advanced Video Codec
Format profile                           : [email protected]
Format settings, CABAC                   : Yes
Format settings, ReFrames                : 2 frames
Codec ID                                 : V_MPEG4/ISO/AVC
Duration                                 : 1h 26mn
Bit rate                                 : 1 675 Kbps
Nominal bit rate                         : 1 800 Kbps
Width                                    : 1 264 pixels
Height                                   : 528 pixels
Display aspect ratio                     : 2.40:1
Original display aspect ratio            : 2.40:1
Frame rate mode                          : Variable
Frame rate                               : 23.976 fps
Color space                              : YUV
Chroma subsampling                       : 4:2:0
Bit depth                                : 8 bits
Scan type                                : Progressive
Bits/(Pixel*Frame)                       : 0.105
Stream size                              : 1.01 GiB (64%)
Writing library                          : x264 core 130 r2273
Encoding settings                        : cabac=1 / ref=2 / deblock=1:0:0 / analyse=0x1:0x131 / me=hex / subme=7 / psy=1 / psy_rd=1.00:0.00 / mixed_ref=0 / me_range=16 / chroma_me=1 / trellis=1 / 8x8dct=0 / cqm=0 / deadzone=21,11 / fast_pskip=1 / chroma_qp_offset=-2 / threads=3 / lookahead_threads=1 / sliced_threads=0 / nr=0 / decimate=1 / interlaced=0 / bluray_compat=0 / constrained_intra=0 / bframes=3 / b_pyramid=0 / b_adapt=1 / b_bias=0 / direct=3 / weightb=1 / open_gop=0 / weightp=2 / keyint=230 / keyint_min=23 / scenecut=40 / intra_refresh=0 / rc_lookahead=40 / rc=abr / mbtree=1 / bitrate=1800 / ratetol=1.0 / qcomp=0.60 / qpmin=10 / qpmax=69 / qpstep=4 / vbv_maxrate=24000 / vbv_bufsize=24000 / nal_hrd=none / ip_ratio=1.40 / aq=1:1.00
Language                                 : Italian
Default                                  : Yes
Forced                                   : No
DURATION                                 : 01:26:17.798000000
NUMBER_OF_FRAMES                         : 124143
NUMBER_OF_BYTES                          : 5726315196
_STATISTICS_WRITING_APP                  : mkvmerge v9.7.1 ('Pandemonium') 64bit
_STATISTICS_WRITING_DATE_UTC             : 2018-06-09 12:33:13
_STATISTICS_TAGS                         : BPS DURATION NUMBER_OF_FRAMES NUMBER_OF_BYTES

Audio #1
ID                                       : 2
Format                                   : AC-3
Format/Info                              : Audio Coding 3
Mode extension                           : CM (complete main)
Codec ID                                 : A_AC3
Duration                                 : 1h 26mn
Bit rate mode                            : Constant
Bit rate                                 : 448 Kbps
Channel(s)                               : 6 channels
Channel positions                        : Front: L C R, Side: L R, LFE
Sampling rate                            : 48.0 KHz
Bit depth                                : 16 bits
Compression mode                         : Lossy
Delay relative to video                  : -5ms
Stream size                              : 277 MiB (17%)
Title                                    : Ita Ac3 5.1
Language                                 : Italian
Default                                  : Yes
Forced                                   : No
DURATION                                 : 01:26:18.688000000
NUMBER_OF_FRAMES                         : 161834
NUMBER_OF_BYTES                          : 414295040
_STATISTICS_WRITING_APP                  : mkvmerge v9.7.1 ('Pandemonium') 64bit
_STATISTICS_WRITING_DATE_UTC             : 2018-06-09 12:33:13
_STATISTICS_TAGS                         : BPS DURATION NUMBER_OF_FRAMES NUMBER_OF_BYTES

Audio #2
ID                                       : 3
Format                                   : AC-3
Format/Info                              : Audio Coding 3
Mode extension                           : CM (complete main)
Codec ID                                 : A_AC3
Duration                                 : 1h 26mn
Bit rate mode                            : Constant
Bit rate                                 : 448 Kbps
Channel(s)                               : 6 channels
Channel positions                        : Front: L C R, Side: L R, LFE
Sampling rate                            : 48.0 KHz
Bit depth                                : 16 bits
Compression mode                         : Lossy
Delay relative to video                  : -5ms
Stream size                              : 277 MiB (17%)
Title                                    : Eng Ac3 5.1
Language                                 : English
Default                                  : No
Forced                                   : No
DURATION                                 : 01:26:18.720000000
NUMBER_OF_FRAMES                         : 485505
NUMBER_OF_BYTES                          : 976836180
_STATISTICS_WRITING_APP                  : mkvmerge v9.7.1 ('Pandemonium') 64bit
_STATISTICS_WRITING_DATE_UTC             : 2018-06-09 12:33:13
_STATISTICS_TAGS                         : BPS DURATION NUMBER_OF_FRAMES NUMBER_OF_BYTES

Menu
00:00:00.000                             : 01)00:00:00:000
00:05:36.127                             : 02)00:05:36:127
00:10:50.650                             : 03)00:10:50:650
00:16:40.165                             : 04)00:16:40:165
00:24:05.944                             : 05)00:24:05:944
00:29:44.073                             : 06)00:29:44:073
00:35:39.512                             : 07)00:35:39:512
00:40:52.908                             : 000:40:52:908
00:45:41.530                             : 09)00:45:41:530
00:52:31.982                             : 10)00:52:31:982
00:58:29.756                             : 11)00:58:29:756
01:04:58.519                             : 12)01:04:58:519
01:10:40.069                             : 13)01:10:40:069
01:16:03.058                             : 14)01:16:03:058
01:17:55.212                             : 15)01:17:55:212
01:26:18.464                             : 16)01:26:18:464



[/spoiler]



Info: Per scaricare devi usare un client come uTorrent o Transmission
AnnounceURL
udp://tracker.coppersurfer.tk:6969/announce
Hash 07e99adf65f52612651bb915f40867a4e4bcc966
Peers seeds: 100 , leech: 14
Size 1.58 GB
Completato 3287x
Aggiunto 19.06.18 - 18:06:31
Uploader   robbyrs
Votazione (Voti: 0)


Condividi questo bittorrent:


html/blog:


bbcode/forum:




Aggiungi Commento