Containment | PILU..! M ZOHRI PINJAM UANG 200rb U' MODAL BERANGKAT KE FINLANDIA IKUTI KEJUARAAN LARI 100 M PUTRA ? | Télécharger Part 3
 * Dettagli Torrent   globale  | Commenti (0) 


- Gothic (1986).720p.H264.italian.english.Ac3.multisub.MIRCrew -


Download via torrent:
Categoria bittorrent DVD
Descrizione
Gothic (1986).720p.H264.italian.english.Ac3.multisub.MIRCrew



NO FOUND ONLY ORIGINAL RELEASE



My release is always in double track audio italian and Original audio
for select it use VLC or dvd player home
not use wmp

Gothic

(1986)

Quality MIRCrew on HD 720p da  1,4 gb








Titolo originale Gothic
Paese di produzione Gran Bretagna
Anno 1986
Durata 83 min
Genere orrore, thriller, erotico
Regia Ken Russell
Sceneggiatura Stephen Volk



   Gabriel Byrne: Lord Byron
   Julian Sands: Percy Shelley
   Natasha Richardson: Mary Shelley
   Miriam Cyr: Claire Clairmont
   Timothy Spall: Dottor Polidori



Nel 1816, in una villa sul lago di Ginevra, Lord Byron, Percy Bysshe Shelley, le rispettive amanti e il dottor Polidori, dopo una seduta spiritica durante una notte tempestosa, si sfidano a inventare storie di fantasmi e di incubi fantastici. ....................



Story of the night that Mary Shelley gave birth to the horror classic "Frankenstein." Disturbed drug induced games are played and ghost stories are told one rainy night at the mad Lord Byron's country estate. Personal horrors are revealed and the madness of the evening runs from sexual fantasy to fiercest nightmare................










[spoiler]
General
Unique ID                                : 226861975750847919695629639469627575182 (0xAAAC06F8D1107E2185433563BB938B8E)
Complete name                            : Gothic (1986).720p.H264.ita.eng.sub.eng.spa.por-MIRCrew\Gothic (1986).720p.H264.ita.eng-MIRCrew.mkv
Format                                   : Matroska
Format version                           : Version 2
File size                                : 1.32 GiB
Duration                                 : 1h 27mn
Overall bit rate                         : 2 172 Kbps
Encoded date                             : UTC 2018-06-15T10:38:16Z
Writing application                      : mkvmerge v5.4.0 ('Piper') built on Mar 10 2012 13:34:39
Writing library                          : Lavf55.12.0

Video
ID                                       : 1
Format                                   : AVC
Format/Info                              : Advanced Video Codec
Format profile                           : [email protected]
Format settings, CABAC                   : Yes
Format settings, ReFrames                : 4 frames
Codec ID                                 : V_MPEG4/ISO/AVC
Duration                                 : 1h 27mn
Bit rate                                 : 1 800 Kbps
Width                                    : 1 280 pixels
Height                                   : 688 pixels
Display aspect ratio                     : 1.860
Frame rate mode                          : Variable
Frame rate                               : 23.976 fps
Color space                              : YUV
Chroma subsampling                       : 4:2:0
Bit depth                                : 8 bits
Scan type                                : Progressive
Bits/(Pixel*Frame)                       : 0.085
Stream size                              : 1.06 GiB (80%)
Writing library                          : x264 core 142 r2479 dd79a61
Encoding settings                        : cabac=1 / ref=3 / deblock=1:0:0 / analyse=0x3:0x113 / me=hex / subme=7 / psy=1 / psy_rd=1.00:0.00 / mixed_ref=1 / me_range=16 / chroma_me=1 / trellis=1 / 8x8dct=1 / cqm=0 / deadzone=21,11 / fast_pskip=1 / chroma_qp_offset=-2 / threads=3 / lookahead_threads=1 / sliced_threads=0 / nr=0 / decimate=1 / interlaced=0 / bluray_compat=0 / constrained_intra=0 / bframes=3 / b_pyramid=2 / b_adapt=1 / b_bias=0 / direct=1 / weightb=1 / open_gop=0 / weightp=2 / keyint=240 / keyint_min=24 / scenecut=40 / intra_refresh=0 / rc_lookahead=40 / rc=abr / mbtree=1 / bitrate=1800 / ratetol=1.0 / qcomp=0.60 / qpmin=0 / qpmax=69 / qpstep=4 / vbv_maxrate=62500 / vbv_bufsize=78125 / nal_hrd=none / filler=0 / ip_ratio=1.40 / aq=1:1.00
Language                                 : Italian
Default                                  : Yes
Forced                                   : No
Color primaries                          : BT.709-5, BT.1361, IEC 61966-2-4, SMPTE RP177
Transfer characteristics                 : BT.709-5, BT.1361
Matrix coefficients                      : BT.709-5, BT.1361, IEC 61966-2-4 709, SMPTE RP177

Audio #1
ID                                       : 2
Format                                   : AC-3
Format/Info                              : Audio Coding 3
Mode extension                           : CM (complete main)
Codec ID                                 : A_AC3
Duration                                 : 1h 27mn
Bit rate mode                            : Constant
Bit rate                                 : 192 Kbps
Channel(s)                               : 2 channels
Channel positions                        : Front: L R
Sampling rate                            : 48.0 KHz
Bit depth                                : 16 bits
Compression mode                         : Lossy
Delay relative to video                  : -5ms
Stream size                              : 120 MiB (9%)
Title                                    : Stereo
Language                                 : Italian
Default                                  : Yes
Forced                                   : No

Audio #2
ID                                       : 3
Format                                   : AC-3
Format/Info                              : Audio Coding 3
Mode extension                           : CM (complete main)
Codec ID                                 : A_AC3
Duration                                 : 1h 27mn
Bit rate mode                            : Constant
Bit rate                                 : 192 Kbps
Channel(s)                               : 2 channels
Channel positions                        : Front: L R
Sampling rate                            : 48.0 KHz
Bit depth                                : 16 bits
Compression mode                         : Lossy
Delay relative to video                  : -5ms
Stream size                              : 120 MiB (9%)
Title                                    : Stereo
Language                                 : English
Default                                  : No
Forced                                   : No


[/spoiler]



Info: Per scaricare devi usare un client come uTorrent o Transmission
AnnounceURL
udp://tracker.coppersurfer.tk:6969/announce
Hash 93b27511fd393fbc34d954c3bece0efe1afd4e64
Peers seeds: 5 , leech: 0
Size 1.32 GB
Completato 127x
Aggiunto 18.06.18 - 21:06:48
Uploader   robbyrs
Votazione (Voti: 0)


Condividi questo bittorrent:


html/blog:


bbcode/forum:




Aggiungi Commento