Playboy (156) | Jocelyn Brando | [NCP] 寝取られ妻
 * Dettagli Torrent   globale  | Commenti (0) 


- Il computer con le scarpe da tennis (1969) Kurt Russell.H264.italian.english.Ac3-5.1.sub.ita.MIRCrew -


Download via torrent:
Categoria bittorrent BDRip
Descrizione
The Computer Wore Tennis Shoes - Il computer con le scarpe da tennis (1969) Kurt Russell.H264.italian.english.Ac3-5.1.sub.ita.MIRCrew



NO FOUND ONLY ORIGINAL RELEASE




My release is always in double track audio italian and Original audio
for select it use VLC or dvd player home
not use wmp

Il computer con le scarpe da tennis

The Computer Wore Tennis Shoes

(1969)








Titolo originale The Computer Wore Tennis Shoes
Paese di produzione Stati Uniti
Anno 1969
Durata 91 min
Genere commedia, fantastico
Regia Robert Butler
Sceneggiatura Joseph L. McEveety
Produttore Bill Anderson
Casa di produzione Walt Disney Company



   Kurt Russell: Dexter Riley
   Cesar Romero: A.J. Arno
   Joe Flynn: Preside Higgins
   William Schallert: Prof. Quigley
   Richard Bakalyan: Chillie Walsh
   Jon Provost: Bradley
   Pat Harrington Jr.: moderatore
   Fritz Feld: Sigmund Van Dyke
   Frank Webb: Pete
   Sheldon Leonard : professore quiz



Dexter Riley è un giovane studente non molto brillante che, tentando maldestramente di aggiustarlo, viene colpito dalle scariche elettriche di un computer, acquisendone improvvisamente tutto il contenuto della memoria. Immagazzinate queste enormi conoscenze, il ragazzo partecipa ad un concorso a quiz per studenti di tutte le scuole, vincendolo e salvando la propria scuola dalla bancarotta e dalle losche trame di un gangster.



At Medville College, an accident with a donated computer gives Dexter Riley the ability to remember any knowledge learned instantly and perfectly.  













[spoiler]
General
Unique ID                                : 230313915405206569635538215192399306584 (0xAD44D8BCAA2CF7A684ABE7B90859DF5
Complete name                            : Il computer con le scarpe da tennis - The Computer Wore Tennis Shoes (1969).720p.H264.ita.eng-MIRCrew.mkv
Format                                   : Matroska
Format version                           : Version 2
File size                                : 1.05 GiB
Duration                                 : 1h 30mn
Overall bit rate                         : 1 666 Kbps
Movie name                               : MIRCrew
Encoded date                             : UTC 2018-06-16 21:52:21
Writing application                      : mkvmerge v5.4.0 ('Piper') built on Mar 10 2012 13:34:39
Writing library                          : Lavf53.24.2

Video
ID                                       : 1
Format                                   : AVC
Format/Info                              : Advanced Video Codec
Format profile                           : [email protected]
Format settings, CABAC                   : No
Format settings, ReFrames                : 1 frame
Format settings, GOP                     : M=1, N=11
Muxing mode                              : Header stripping
Codec ID                                 : V_MPEG4/ISO/AVC
Duration                                 : 1h 30mn
Bit rate                                 : 1 270 Kbps
Width                                    : 720 pixels
Height                                   : 432 pixels
Display aspect ratio                     : 1.667
Frame rate mode                          : Variable
Frame rate                               : 23.976 fps
Color space                              : YUV
Chroma subsampling                       : 4:2:0
Bit depth                                : 8 bits
Scan type                                : Progressive
Bits/(Pixel*Frame)                       : 0.170
Stream size                              : 808 MiB (75%)
Writing library                          : x264 core 118
Encoding settings                        : cabac=0 / ref=1 / deblock=1:0:0 / analyse=0x1:0x111 / me=dia / subme=0 / psy=0 / mixed_ref=0 / me_range=16 / chroma_me=1 / trellis=0 / 8x8dct=0 / cqm=0 / deadzone=21,11 / fast_pskip=1 / chroma_qp_offset=0 / threads=2 / sliced_threads=0 / nr=0 / decimate=1 / interlaced=0 / bluray_compat=0 / constrained_intra=0 / bframes=0 / weightp=0 / keyint=11 / keyint_min=1 / scenecut=0 / intra_refresh=0 / rc=abr / mbtree=0 / bitrate=1270 / ratetol=1.0 / qcomp=0.60 / qpmin=10 / qpmax=51 / qpstep=4 / ip_ratio=1.40 / aq=0
Language                                 : Italian
Default                                  : Yes
Forced                                   : No

Audio #1
ID                                       : 2
Format                                   : AC-3
Format/Info                              : Audio Coding 3
Mode extension                           : CM (complete main)
Muxing mode                              : Header stripping
Codec ID                                 : A_AC3
Duration                                 : 1h 30mn
Bit rate mode                            : Constant
Bit rate                                 : 192 Kbps
Channel(s)                               : 2 channels
Channel positions                        : Front: L R
Sampling rate                            : 48.0 KHz
Bit depth                                : 16 bits
Compression mode                         : Lossy
Stream size                              : 124 MiB (12%)
Title                                    : Ita Ac3
Language                                 : Italian
Default                                  : Yes
Forced                                   : No

Audio #2
ID                                       : 3
Format                                   : AC-3
Format/Info                              : Audio Coding 3
Mode extension                           : CM (complete main)
Muxing mode                              : Header stripping
Codec ID                                 : A_AC3
Duration                                 : 1h 30mn
Bit rate mode                            : Constant
Bit rate                                 : 192 Kbps
Channel(s)                               : 2 channels
Channel positions                        : Front: L R
Sampling rate                            : 48.0 KHz
Bit depth                                : 16 bits
Compression mode                         : Lossy
Delay relative to video                  : 12ms
Stream size                              : 124 MiB (12%)
Title                                    : eng Ac3
Language                                 : English
Default                                  : No
Forced                                   : No


[/spoiler]



Info: Per scaricare devi usare un client come uTorrent o Transmission
AnnounceURL
udp://tracker.coppersurfer.tk:6969/announce
Hash 3cd8f4de9b63fff2583a488f60e49fba843912be
Peers seeds: 34 , leech: 10
Size 1.05 GB
Completato 412x
Aggiunto 17.06.18 - 19:06:01
Uploader   robbyrs
Votazione (Voti: 1)


Condividi questo bittorrent:


html/blog:


bbcode/forum:




Aggiungi Commento