The Voice 8 29 2012 July 9 2012 July 15 zno | Vers un film METROID ? | PAUSE CAFAY #120 | McMafia (2018 - ongoing) RATING 7.7 / 10 QUALITY
 * Dettagli Torrent   globale  | Commenti (0) 


- La Scomparsa Di Alice Creed (2009) [BDrip 1080p - H264 - Ita Eng Ac3 5.1 - Sub Ita Eng] -


Download via torrent:
Categoria bittorrent BDRip
Descrizione
La scomparsa di Alice Creed (2009)



Titolo originale: The Disappearance of Alice Creed
Nazionalità: Regno Unito
Anno: 2009
Genere: thriller
Regia: J Blakeson

Cast:

Gemma Arterton: Alice Creed
Martin Compston: Danny
Eddie Marsan: Vic

Due uomini, un ventenne di nome Danny e un quarantenne di nome Vic, entrambi ex-detenuti, insonorizzano completamente un appartamento trasformandolo in una prigione. Quindi si preparano a rapire, allo scopo di ottenere un riscatto, Alice Creed, la bella figlia di un ricco uomo d'affari. Riescono a sequestrare la ragazza e a condurla nell'appartamento, dove viene rinchiusa in una stanza e legata ad un letto, ma, pur avendo pianificato tutto nei minimi dettagli, Danny e Vic dovranno fare i conti con un'inaspettata reazione della ragazza che farà naufragare i loro loschi piani. La ragazza, infatti, si dimostra tutt'altro che arrendevole, cercando in tutti i modi di non farsi sopraffare dai rapitori.

Alice, infatti, in seguito a un susseguirsi di colpi di scena, scopre che uno dei due sequestratori, che le si sono sempre presentati con un passamontagna, è Danny, il ragazzo con cui ha una relazione. Danny le propone di fingersi spaventata per poi, alla fine di tutto, scappare coi soldi del riscatto. Danny ha però una relazione anche con Vic (era stato grazie all'ascendente su di lui che l'aveva convinto a rapire proprio Alice). A poco a poco il piano si sgretola e i due rapitori si uccidono a vicenda, mentre Alice riesce finalmente a fuggire.





General
Unique ID                                : 205003980207149042765998941525154740779 (0x9A3A549666E64E75B7DB9A914F503A2B)
Complete name                            : D:\Da uppare\La.Scomparsa.Di.Alice.Creed.2009.ITA.ENG.BDRip.1080p.x264.mkv
Format                                   : Matroska
Format version                           : Version 2
File size                                : 7.46 GiB
Duration                                 : 1 h 40 min
Overall bit rate                         : 10.7 Mb/s
Movie name                               : La.Scomparsa.Di.Alice.Creed.2009.ITA.ENG.BDRip.1080p.x264
Encoded date                             : UTC 2017-08-29 22:12:04
Writing application                      : mkvmerge v5.4.0 ('Piper') built on Mar 10 2012 13:34:39
Writing library                          : libebml v1.2.3 + libmatroska v1.3.0

Video
ID                                       : 1
Format                                   : AVC
Format/Info                              : Advanced Video Codec
Format profile                           : [email protected]
Format settings, CABAC                   : Yes
Format settings, RefFrames               : 5 frames
Muxing mode                              : Header stripping
Codec ID                                 : V_MPEG4/ISO/AVC
Duration                                 : 1 h 40 min
Bit rate                                 : 9 639 kb/s
Width                                    : 1 920 pixels
Height                                   : 800 pixels
Display aspect ratio                     : 2.40:1
Frame rate mode                          : Constant
Frame rate                               : 23.976 (24000/1001) FPS
Color space                              : YUV
Chroma subsampling                       : 4:2:0
Bit depth                                : 8 bits
Scan type                                : Progressive
Bits/(Pixel*Frame)                       : 0.262
Stream size                              : 6.60 GiB (88%)
Title                                    : La scomparsa di Alice Creed\La.Scomparsa.Di.Alice.Creed.2009.ITA.ENG.BDRip.1080p.x264
Writing library                          : x264 core 129 r2230 1cffe9f
Language                                 : English
Default                                  : Yes
Forced                                   : No

Audio #1
ID                                       : 2
Format                                   : AC-3
Format/Info                              : Audio Coding 3
Format settings, Endianness              : Big
Muxing mode                              : Header stripping
Codec ID                                 : A_AC3
Duration                                 : 1 h 40 min
Bit rate mode                            : Constant
Bit rate                                 : 384 kb/s
Channel(s)                               : 6 channels
Channel positions                        : Front: L C R, Side: L R, LFE
Sampling rate                            : 48.0 kHz
Frame rate                               : 31.250 FPS (1536 SPF)
Bit depth                                : 16 bits
Compression mode                         : Lossy
Stream size                              : 275 MiB (4%)
Title                                    : AC3, 384 kb/s (6 ch)
Language                                 : Italian
Service kind                             : Complete Main
Default                                  : Yes
Forced                                   : No

Audio #2
ID                                       : 3
Format                                   : AC-3
Format/Info                              : Audio Coding 3
Format settings, Endianness              : Big
Muxing mode                              : Header stripping
Codec ID                                 : A_AC3
Duration                                 : 1 h 40 min
Bit rate mode                            : Constant
Bit rate                                 : 640 kb/s
Channel(s)                               : 6 channels
Channel positions                        : Front: L C R, Side: L R, LFE
Sampling rate                            : 48.0 kHz
Frame rate                               : 31.250 FPS (1536 SPF)
Bit depth                                : 16 bits
Compression mode                         : Lossy
Stream size                              : 458 MiB (6%)
Title                                    : AC3, 640 kb/s (6 ch) Original
Language                                 : English
Service kind                             : Complete Main
Default                                  : No
Forced                                   : No

Text #1
ID                                       : 4
Format                                   : UTF-8
Codec ID                                 : S_TEXT/UTF8
Codec ID/Info                            : UTF-8 Plain Text
Title                                    : Sub
Language                                 : Italian
Default                                  : No
Forced                                   : No

Text #2
ID                                       : 5
Format                                   : PGS
Muxing mode                              : zlib
Codec ID                                 : S_HDMV/PGS
Codec ID/Info                            : Picture based subtitle format used on BDs/HD-DVDs
Title                                    : Sub
Language                                 : English
Default                                  : No
Forced                                   : No

Menu
00:00:00.000                             : :Chapter 01
00:09:06.003                             : :Chapter 02
00:17:08.610                             : :Chapter 03
00:26:23.164                             : :Chapter 04
00:35:30.795                             : :Chapter 05
00:42:32.258                             : :Chapter 06
00:52:42.617                             : :Chapter 07
00:57:32.574                             : :Chapter 08
01:07:41.640                             : :Chapter 09
01:12:52.910                             : :Chapter 10
01:20:57.310                             : :Chapter 11
01:35:43.112                             : :Chapter 12



Info: Per scaricare devi usare un client come uTorrent o Transmission
AnnounceURL
udp://tracker.coppersurfer.tk:6969/announce
Hash c5391865675c3c230bca36a18b7ca23da67d48cf
Peers seeds: 5 , leech: 2
Size 7.46 GB
Completato 526x
Aggiunto 03.09.17 - 16:09:02
Uploader   alicerasi
Votazione (Voti: 1)


Condividi questo bittorrent:


html/blog:


bbcode/forum:




Aggiungi Commento