The Intelligent Investor, Rev. Ed | Télécharger Part 3 | Majomparádé | General | 2017 Review
 * Dettagli Torrent   globale  | Commenti (0) 


- Codice 999 (2016) [BDrip 1080p - Ita Eng Dts Ita Ac3 - Sub Ita NUEng] by BLUWORLD -


Download via torrent:
Categoria bittorrent BDRip
Descrizione
Codice 999 (2016)



Titolo originale: Triple 9
Nazionalità: Stati Uniti d'America
Anno: 2016
Genere: drammatico, noir, thriller, azione, poliziesco
Regia: John Hillcoat

Cast
Casey Affleck: Chris Allen
Chiwetel Ejiofor: Michael Atwood
Anthony Mackie: Marcus Belmont
Aaron Paul: Gabe Welch
Woody Harrelson: sergente Jeffrey Allen
Kate Winslet: Irina Vlaslov
Norman Reedus: Russell Welch
Gal Gadot: Helena Vlaslov
Clifton Collins Jr.: Franco Rodriguez
Teresa Palmer: Michelle Allen
Michael K. Williams: Sweet Pea
Luis Da Silva: Luis Pinto
Michelle Ang: Trina Ling
Terence Rosemore: Joshua Parks
Michael Harding: Walter Sims
Labrandon Shead: sergente Sabo
Armando Alonzo: Emilio
Mary Rachel Dudley: patologa della polizia
Ian Casselberry: Gomez
E. Roger Mitchell: Smith
Jon Eyez: uomo Ispuk

Gang di ex militari e poliziotti corrotti, addestrati al combattimento militare e senza scrupoli. La mafiosa russa Irina li tiene in pugno, Michael è il padre del figlio della sorella, e questa volta l'unico modo per accontentarla sembra essere quello di far scattare un codice 999, agente a terra. Solo uccidendo un poliziotto infatti, e sfruttando il richiamo di tutte le volanti sul luogo, Michael e i suoi avranno il tempo di andare a segno altrove. Se poi quell'agente è Chris, nuovo del reparto anti-gang e nipote del capo, ancora meglio. Ma qualcosa andrà storto, in maniera del tutto imprevedibile.








General
Unique ID                                : 233062743082926632326871281192150402672 (0xAF564067B5002A56B4FDBECFF7F28670)
Complete name                            : D:\Downloads\Codice.999.2016.DTS.ITA.ENG.1080p.BluRay.x264-BLUWORLD.mkv
Format                                   : Matroska
Format version                           : Version 4 / Version 2
File size                                : 11.7 GiB
Duration                                 : 1 h 55 min
Overall bit rate mode                    : Variable
Overall bit rate                         : 14.5 Mb/s
Encoded date                             : UTC 2016-09-09 13:57:39
Writing application                      : mkvmerge v9.4.0 ('Knurl') 32bit
Writing library                          : libebml v1.3.4 + libmatroska v1.4.5

Video
ID                                       : 1
Format                                   : AVC
Format/Info                              : Advanced Video Codec
Format profile                           : [email protected]
Format settings, CABAC                   : Yes
Format settings, RefFrames               : 5 frames
Codec ID                                 : V_MPEG4/ISO/AVC
Duration                                 : 1 h 55 min
Bit rate mode                            : Variable
Bit rate                                 : 10.8 Mb/s
Maximum bit rate                         : 62.5 Mb/s
Width                                    : 1 920 pixels
Height                                   : 804 pixels
Display aspect ratio                     : 2.40:1
Frame rate mode                          : Constant
Frame rate                               : 24.000 FPS
Color space                              : YUV
Chroma subsampling                       : 4:2:0
Bit depth                                : 8 bits
Scan type                                : Progressive
Bits/(Pixel*Frame)                       : 0.292
Stream size                              : 8.72 GiB (75%)
Writing library                          : x264 core 148 r2705 3f5ed56
Default                                  : Yes
Forced                                   : No

Audio #1
ID                                       : 2
Format                                   : DTS
Format/Info                              : Digital Theater Systems
Mode                                     : 16
Format settings, Endianness              : Big
Codec ID                                 : A_DTS
Duration                                 : 1 h 55 min
Bit rate mode                            : Constant
Bit rate                                 : 1 509 kb/s
Channel(s)                               : 6 channels
Channel positions                        : Front: L C R, Side: L R, LFE
Sampling rate                            : 48.0 kHz
Frame rate                               : 93.750 FPS (512 SPF)
Bit depth                                : 24 bits
Compression mode                         : Lossy
Stream size                              : 1.22 GiB (10%)
Title                                    : Ita. DTS 1510 Kbps
Language                                 : Italian
Default                                  : Yes
Forced                                   : No

Audio #2
ID                                       : 3
Format                                   : AC-3
Format/Info                              : Audio Coding 3
Format settings, Endianness              : Big
Codec ID                                 : A_AC3
Duration                                 : 1 h 55 min
Bit rate mode                            : Constant
Bit rate                                 : 640 kb/s
Channel(s)                               : 6 channels
Channel positions                        : Front: L C R, Side: L R, LFE
Sampling rate                            : 48.0 kHz
Frame rate                               : 31.250 FPS (1536 SPF)
Bit depth                                : 16 bits
Compression mode                         : Lossy
Stream size                              : 529 MiB (4%)
Title                                    : Ita. AC3 640 Kbps
Language                                 : Italian
Service kind                             : Complete Main
Default                                  : No
Forced                                   : No

Audio #3
ID                                       : 4
Format                                   : DTS
Format/Info                              : Digital Theater Systems
Mode                                     : 16
Format settings, Endianness              : Big
Codec ID                                 : A_DTS
Duration                                 : 1 h 55 min
Bit rate mode                            : Constant
Bit rate                                 : 1 509 kb/s
Channel(s)                               : 6 channels
Channel positions                        : Front: L C R, Side: L R, LFE
Sampling rate                            : 48.0 kHz
Frame rate                               : 93.750 FPS (512 SPF)
Bit depth                                : 24 bits
Compression mode                         : Lossy
Stream size                              : 1.22 GiB (10%)
Title                                    : Eng. DTS 1510 Kbps
Language                                 : English
Default                                  : No
Forced                                   : No

Text #1
ID                                       : 5
Format                                   : UTF-8
Codec ID                                 : S_TEXT/UTF8
Codec ID/Info                            : UTF-8 Plain Text
Duration                                 : 1 h 36 min
Bit rate                                 : 0 b/s
Count of elements                        : 15
Stream size                              : 542 Bytes (0%)
Title                                    : Sub. Ita. Forced
Language                                 : Italian
Default                                  : Yes
Forced                                   : Yes

Text #2
ID                                       : 6
Format                                   : UTF-8
Codec ID                                 : S_TEXT/UTF8
Codec ID/Info                            : UTF-8 Plain Text
Duration                                 : 1 h 48 min
Bit rate                                 : 49 b/s
Count of elements                        : 1192
Stream size                              : 39.4 KiB (0%)
Title                                    : Sub. Ita.
Language                                 : Italian
Default                                  : No
Forced                                   : No

Text #3
ID                                       : 7
Format                                   : UTF-8
Codec ID                                 : S_TEXT/UTF8
Codec ID/Info                            : UTF-8 Plain Text
Duration                                 : 1 h 48 min
Bit rate                                 : 61 b/s
Count of elements                        : 1654
Stream size                              : 49.3 KiB (0%)
Title                                    : Sub. Eng. Not Hearing
Language                                 : English
Default                                  : No
Forced                                   : No

Menu
00:00:00.000                             : en:00:00:00.000 / en:00:00:00.000
00:00:48.875                             : en:00:00:48.875 / en:00:00:48.875
00:08:56.417                             : en:00:08:56.417 / en:00:08:56.417
00:17:27.292                             : en:00:17:27.292 / en:00:17:27.292
00:29:04.958                             : en:00:29:04.958 / en:00:29:04.958
00:39:21.167                             : en:00:39:21.167 / en:00:39:21.167
00:48:01.958                             : en:00:48:01.958 / en:00:48:01.958
00:58:48.750                             : en:00:58:48.750 / en:00:58:48.750
01:10:14.167                             : en:01:10:14.167 / en:01:10:14.167
01:15:15.667                             : en:01:15:15.667 / en:01:15:15.667
01:30:47.458                             : en:01:30:47.458 / en:01:30:47.458
01:37:45.792                             : en:01:37:45.792 / en:01:37:45.792
01:50:00.875                             : en:01:50:00.875 / en:01:50:00.875





Info: Per scaricare devi usare un client come uTorrent o Transmission
AnnounceURL
udp://tracker.tntvillage.scambioetico.org:2710/announce
Hash 0bf17dc12bc0637a77c099d970b3eb15ef0cabc5
Peers seeds: 21 , leech: 5
Size 11.68 GB
Completato 1670x
Aggiunto 25.07.17 - 10:07:39
Uploader   alicerasi
Votazione (Voti: 0)


Condividi questo bittorrent:


html/blog:


bbcode/forum:




Aggiungi Commento