War Monthly Issue 40 | Alien Vs. Zombies | Советское кино (DVD)
 * Dettagli Torrent   globale  | Commenti (0) 


- Stanotte a.. Venezia (2017) [H264 - Ita Aac] WEB-DL - documentario -


Download via torrent:
Categoria bittorrent Altro
Descrizione
Stanotte a... Venezia 2017





Paese: Italia
Anno: 2015 – in produzione
Genere: artistico
Puntate: 4
Durata: 120 min

Conduttore: Alberto Angela
Ideatore: Alberto Angela, Etra Palazzi, Aldo Piro e Giampaolo Tessarolo
Regia: Gabriele Cipollitti
Musiche: Giuseppe Zambon
Rete televisiva: Rai 1

Stanotte a... è una serie di documentari sulla storia dell'arte a cura di Alberto Angela, in onda su Rai 1 dal 28 maggio 2015.

Il progetto consiste nel mostrare al grande pubblico quei luoghi, ricchi di storia e cultura, che di giorno sono affollati dai vari turisti, ma che di notte rimangono soli nella loro immensità.
Per questo le riprese vengono effettuate solamente di notte, impiegando per questo anche molti giorni (per Stanotte a San Pietro è stato impiegato quasi un mese di riprese), mostrando così un'altra faccia di quel luogo che altrimenti sarebbe impercettibile durante il dì.

«Nei Musei, puoi girare soltanto di notte. Volevo trasferire questa sensazione notturna anche al pubblico. Quando sei da solo e hai un'opera davanti cambia tutto. L'idea di fondo del programma è questa.
Abbiamo iniziato con il Museo egizio di Torino perché è il primo museo egizio al di fuori dell'Egitto. Il programma si basa su questa formula: l'ultimo visitatore va via e il direttore ti lascia la chiave del museo fino all'alba» (Alberto Angela)








General
Complete name                            : C:\Users\Alice\Desktop\Stanotte a... Venezia 2017.mp4
Format                                   : MPEG-4
Format profile                           : Base Media
Codec ID                                 : isom (isom)
File size                                : 1.72 GiB
Duration                                 : 2 h 9 min
Overall bit rate mode                    : Variable
Overall bit rate                         : 1 898 kb/s
Encoded date                             : UTC 2017-06-13 22:19:45
Tagged date                              : UTC 2017-06-13 22:19:45

Video
ID                                       : 1
Format                                   : AVC
Format/Info                              : Advanced Video Codec
Format profile                           : [email protected]
Format settings, CABAC                   : Yes
Format settings, RefFrames               : 4 frames
Format settings, GOP                     : M=3, N=25
Codec ID                                 : avc1
Codec ID/Info                            : Advanced Video Coding
Duration                                 : 2 h 9 min
Source duration                          : 2 h 9 min
Bit rate mode                            : Constant
Bit rate                                 : 1 800 kb/s
Maximum bit rate                         : 6 306 kb/s
Width                                    : 928 pixels
Height                                   : 522 pixels
Display aspect ratio                     : 16:9
Frame rate mode                          : Constant
Frame rate                               : 25.000 FPS
Color space                              : YUV
Chroma subsampling                       : 4:2:0
Bit depth                                : 8 bits
Scan type                                : Progressive
Bits/(Pixel*Frame)                       : 0.149
Stream size                              : 1.56 GiB (91%)
Source stream size                       : 1.63 GiB (95%)
Tagged date                              : UTC 2017-06-13 22:19:56

Audio
ID                                       : 2
Format                                   : AAC
Format/Info                              : Advanced Audio Codec
Format profile                           : LC
Codec ID                                 : 40
Duration                                 : 2 h 9 min
Bit rate mode                            : Variable
Bit rate                                 : 93.6 kb/s
Maximum bit rate                         : 97.9 kb/s
Channel(s)                               : 2 channels
Channel positions                        : Front: L R
Sampling rate                            : 44.1 kHz
Frame rate                               : 43.066 FPS (1024 SPF)
Compression mode                         : Lossy
Stream size                              : 86.8 MiB (5%)
Default                                  : Yes
Alternate group                          : 1
Tagged date                              : UTC 2017-06-13 22:19:56





Info: Per scaricare devi usare un client come uTorrent o Transmission
AnnounceURL
http://tracker.tntvillage.scambioetico.org:2710/announce
Hash 36c3f84ea3f52627de246b2fdc5ac34342f39345
Peers seeds: 8 , leech: 2
Size 1.72 GB
Completato 958x
Aggiunto 09.07.17 - 08:07:33
Uploader   alicerasi
Votazione (Voti: 0)


Condividi questo bittorrent:


html/blog:


bbcode/forum:




Aggiungi Commento